Halloween (2018).1080p.H264.italian.english.Ac3-5.1-MIRCrew

  • Category Movies
  • Type HD
  • Language English
  • Total size 2.1 GB
  • Uploaded By robbyrs
  • Downloads 492
  • Last checked 6 days ago
  • Date uploaded 1 week ago
  • Seeders 38
  • Leechers 13

Halloween

Horror

Laurie Strode comes to her final confrontation with Michael Myers, the masked figure who has haunted her since she narrowly escaped his killing spree on Halloween night four decades ago.

Infohash : 06A890BC2E618D41E6F71D35A7323691823BC1F2

Halloween (2018).1080p.H264.italian.english.Ac3-5.1-MIRCrew


NO FOUND ONLY ORIGINAL RELEASE



My release is always in double track audio italian and Original audio
for select it use VLC or dvd player home
not use wmp

Halloween (2018)

Quality MIRCrew on HD 1080p da  2,1 gb



ITA



ENG







Paese di produzione Stati Uniti d'America
Anno 2018
Durata 104 min
Rapporto 2,39:1
Genere orrore, thriller
Regia David Gordon Green
Soggetto John Carpenter, Debra Hill (personaggi)
Sceneggiatura David Gordon Green, Danny McBride, Jeff Fradley



   Jamie Lee Curtis: Laurie Strode
   Judy Greer: Karen Nelson, nata Strode
   Andi Matichak: Allyson Nelson
   Will Patton: Frank Hawkins
   Virginia Gardner: Vicky
   Nick Castle e James Jude Courtney: Michael Myers
   Haluk Bilginer: dott. Ranbir Sartain
   Jefferson Hall: Aaron Korey
   Rhian Rees: Dana Haines
   Toby Huss: Ray Nelson
   Dylan Arnold: Cameron Elam
   Miles Robbins: Dave
   Drew Scheid: Oscar
   Jibrail Nantambu: Julian Morrisey
   Omar Dorsey: Sceriffo Barker



Quarant'anni dopo gli omicidi del 1978 a Haddonfield (Illinois, Stati Uniti), i giornalisti Aaron Korey e Dana Haines si recano allo Smith's Grove Sanitarium per conoscere Michael Myers, che venne catturato dopo essere stato ferito da sei colpi di pistola, cadendo giù dal balcone. Il dott. Ranbir Sartain li informa che Michael è in grado di parlare, ma ha scelto di non farlo. Aaron non riesce a convincere Michael a parlare, anche dopo aver tirato fuori la maschera che indossava.



In October 2018, forty years after the massacre in Haddonfield, true-crime pod-casters Aaron Korey and Dana Haines travel to Warren County Smith's Grove Sanitarium to visit Michael Myers. They briefly interview Michael's psychiatrist Dr. Ranbir Sartain, a former student of Dr. Samuel Loomis, before meeting with Michael in hopes of gaining some insight into his past actions before his transfer to a new facility





General
Unique ID                                : 192099254729790063280838419904060769305 (0x9084F87FA79FD7E6B27764AFC6E8C419)
Complete name                            : Halloween (2018).1080p.ita.eng-MIRCrew\Halloween (2018).1080p.ita.eng-MIRCrew.mkv
Format                                   : Matroska
Format version                           : Version 2
File size                                : 2.11 GiB
Duration                                 : 1h 45mn
Overall bit rate                         : 2 855 Kbps
Movie name                               : MIRCrew
Encoded date                             : UTC 2019-02-09 15:20:23
Writing application                      : mkvmerge v5.4.0 ('Piper') built on Mar 10 2012 13:34:39
Writing library                          : libebml v1.2.3 + libmatroska v1.3.0
DURATION                                 : 01:45:45.952000000
NUMBER_OF_FRAMES                         : 198311
NUMBER_OF_BYTES                          : 203070464
_STATISTICS_WRITING_APP                  : mkvmerge v26.0.0 ('In The Game') 64-bit
_STATISTICS_WRITING_DATE_UTC             : 2019-02-09 15:10:40
_STATISTICS_TAGS                         : BPS DURATION NUMBER_OF_FRAMES NUMBER_OF_BYTES

Video
ID                                       : 1
Format                                   : AVC
Format/Info                              : Advanced Video Codec
Format profile                           : [email protected]
Format settings, CABAC                   : Yes
Format settings, ReFrames                : 4 frames
Codec ID                                 : V_MPEG4/ISO/AVC
Duration                                 : 1h 45mn
Bit rate                                 : 2 150 Kbps
Width                                    : 1 904 pixels
Height                                   : 800 pixels
Display aspect ratio                     : 2.40:1
Frame rate mode                          : Variable
Frame rate                               : 23.976 fps
Color space                              : YUV
Chroma subsampling                       : 4:2:0
Bit depth                                : 8 bits
Scan type                                : Progressive
Bits/(Pixel*Frame)                       : 0.059
Stream size                              : 1.55 GiB (73%)
Title                                    : MIRCrew
Writing library                          : x264 core 152
Encoding settings                        : cabac=1 / ref=4 / deblock=1:-1:-1 / analyse=0x3:0x133 / me=umh / subme=9 / psy=1 / psy_rd=1.00:0.15 / mixed_ref=1 / me_range=24 / chroma_me=1 / trellis=2 / 8x8dct=1 / cqm=0 / deadzone=21,11 / fast_pskip=0 / chroma_qp_offset=-3 / threads=12 / lookahead_threads=1 / sliced_threads=0 / nr=0 / decimate=1 / interlaced=0 / bluray_compat=0 / constrained_intra=0 / bframes=3 / b_pyramid=2 / b_adapt=2 / b_bias=0 / direct=3 / weightb=1 / open_gop=0 / weightp=2 / keyint=250 / keyint_min=23 / scenecut=40 / intra_refresh=0 / rc_lookahead=60 / rc=2pass / mbtree=1 / bitrate=2150 / ratetol=1.0 / qcomp=0.60 / qpmin=0 / qpmax=69 / qpstep=4 / cplxblur=20.0 / qblur=0.5 / vbv_maxrate=31250 / vbv_bufsize=31250 / nal_hrd=none / filler=0 / ip_ratio=1.40 / aq=1:1.00
Language                                 : Italian
Default                                  : Yes
Forced                                   : No

Audio #1
ID                                       : 2
Format                                   : AC-3
Format/Info                              : Audio Coding 3
Mode extension                           : CM (complete main)
Codec ID                                 : A_AC3
Duration                                 : 1h 45mn
Bit rate mode                            : Constant
Bit rate                                 : 448 Kbps
Channel(s)                               : 6 channels
Channel positions                        : Front: L C R, Side: L R, LFE
Sampling rate                            : 48.0 KHz
Bit depth                                : 16 bits
Compression mode                         : Lossy
Delay relative to video                  : 1s 0ms
Stream size                              : 339 MiB (16%)
Title                                    : Ita Ac3 5.1
Language                                 : Italian
Default                                  : Yes
Forced                                   : No

Audio #2
ID                                       : 3
Format                                   : AC-3
Format/Info                              : Audio Coding 3
Mode extension                           : CM (complete main)
Codec ID                                 : A_AC3
Duration                                 : 1h 45mn
Bit rate mode                            : Constant
Bit rate                                 : 256 Kbps
Channel(s)                               : 2 channels
Channel positions                        : Front: L R
Sampling rate                            : 48.0 KHz
Bit depth                                : 16 bits
Compression mode                         : Lossy
Stream size                              : 194 MiB (9%)
Title                                    : Eng Ac3 2.0
Language                                 : English
Default                                  : No
Forced                                   : No



Files:

Halloween (2018).1080p.ita.eng-MIRCrew
  • Halloween (2018).1080p.ita.eng-MIRCrew.mkv (2.1 GB)

There are currently no comments. Feel free to leave one :)

Code:

  • udp://tracker.coppersurfer.tk:6969/announce
  • udp://tracker.torrent.eu.org:451/announce
  • udp://tracker.pirateparty.gr:6969/announce
  • udp://tracker.opentrackr.org:1337/announce
  • udp://tracker.leechers-paradise.org:6969/announce
  • udp://tracker.eddie4.nl:6969/announce
  • udp://shadowshq.yi.org:6969/announce
  • udp://shadowshq.eddie4.nl:6969/announce
  • udp://inferno.demonoid.pw:3391/announce
  • udp://eddie4.nl:6969/announce
  • udp://9.rarbg.to:2730/announce
  • udp://9.rarbg.com:2710/announce
  • udp://9.rarbg.me:2780/announce
  • udp://62.138.0.158:6969/announce
  • udp://151.80.120.114:2710/announce