How To Train Your Dragon 3 The Hidden World 2019 Movies HD Cam x2...

  • Category Movies
  • Type h.264/x264
  • Language English
  • Total size 705.7 MB
  • Uploaded By nehalpuja
  • Downloads 10711
  • Last checked 3 months ago
  • Date uploaded 3 months ago
  • Seeders 135
  • Leechers 48

Infohash : D957E312360A8DCC782EEC8DE6591F9A990E41E7

How To Train Your Dragon 3 The Hidden World 2019 Movies HD Cam x264 Clean Audio New Source with Sample ☻rDX☻
===============================================================================================

SCREEN SHOTS:



or

//iphonehosting.eu/2018/12/airline/1.html

File size : 701 MiB
Duration : 1 h 35 min
Overall bit rate : 1 030 kb/s
Movie name : How To Train Your Dragon 3 The Hidden World 2019 Movies HD Cam x264 Clean Audio New Source ☻rDX☻

Video
ID : 2
Format : AVC
Format/Info : Advanced Video Codec
Format profile : [email protected]
Format settings, CABAC : Yes
Format settings, ReFrames : 2 frames
Format settings, GOP : M=1, N=12
Codec ID : V_MPEG4/ISO/AVC
Duration : 1 h 35 min
Bit rate : 946 kb/s
Width : 700 pixels
Height : 294 pixels
Display aspect ratio : 2.40:1
Frame rate mode : Constant
Frame rate : 29.970 (30000/1001) FPS
Color space : YUV
Chroma subsampling : 4:2:0
Bit depth : 8 bits
Scan type : Progressive
Bits/(Pixel*Frame) : 0.153
Stream size : 643 MiB (92%)
Title : ☻rDX☻
Default : Yes
Forced : No

Audio
ID : 1
Format : AC-3
Format/Info : Audio Coding 3
Mode extension : CM (complete main)
Format settings, Endianness : Big
Codec ID : A_AC3
Duration : 1 h 35 min
Bit rate mode : Constant
Bit rate : 64.0 kb/s
Channel(s) : 2 channels
Channel positions : Front: L R
Sampling rate : 44.1 kHz
Frame rate : 28.711 FPS (1536 spf)
Bit depth : 16 bits
Compression mode : Lossy
Stream size : 43.5 MiB (6%)
Title : ☻rDX☻
Default : Yes
Forced : No

//www.imdb.com/title/tt2386490

Files:

How To Train Your Dragon 3 The Hidden World 2019 Movies HD Cam x264 Clean Audio New Source with Sample ☻rDX☻
  • Sample ~ How To Train Your Dragon 3 The Hidden World 2019 Movies HD Cam x264 Clean Audio New Source ☻rDX☻.mkv (5.0 MB)
  • How To Train Your Dragon 3 The Hidden World 2019 Movies HD Cam x264 Clean Audio New Source ☻rDX☻.mkv (700.7 MB)

Comments

Code:

  • udp://tracker.coppersurfer.tk:6969/announce
  • udp://tracker.leechers-paradise.org:6969/announce
  • udp://tracker.pirateparty.gr:6969/announce
  • udp://eddie4.nl:6969/announce
  • udp://tracker.zer0day.to:1337/announce
  • udp://9.rarbg.me:2730/announce
  • udp://9.rarbg.to:2710/announce
  • udp://public.popcorn-tracker.org:6969/announce
  • udp://p4p.arenabg.ch:1337/announce
  • udp://tracker.vanitycore.co:6969/announce
  • udp://ipv4.tracker.harry.lu:80/announce
  • udp://tracker.opentrackr.org:1337/announce
  • udp://p4p.arenabg.com:1337/announce
  • udp://shadowshq.yi.org:6969/announce