Backdraft 2 Fuoco assassino ( 2019 ).1080p.H264.ita.eng.Ac3-5.1.s...

  • Category Movies
  • Type HD
  • Language English
  • Total size 2.4 GB
  • Uploaded By robbyrs
  • Downloads 329
  • Last checked 1 week ago
  • Date uploaded 2 weeks ago
  • Seeders 21
  • Leechers 2

Backdraft 2

ActionCrimeDrama

The sequel to the 1991 hit, follows an investigator with the Chicago F.D., who has to track down an arms dealers who use deadly fires as a distraction.

Infohash : A3AAECDBC254D9D574A0E85A181505340C66E34D

Backdraft 2 Fuoco assassino ( 2019 ).1080p.H264.ita.eng.Ac3-5.1.sub.ita.eng-MIRCrew


NO FOUND ONLY ORIGINAL RELEASE


My release is always in double track audio italian and Original audio
for select it use VLC or dvd player home
not use wmp

Backdraft 2 Fuoco assassino (2019 )

Quality MIRCrew on HD 1080p da 2,4 gb









Directed by Gonzalo López-Gallego
Produced by Raffaella De Laurentiis
Written by Gregory Widen
Music by Randy Edelman
Cinematography José David Montero
Release date May 14, 2019 (United States)
Running time 101 minutes
Country United States



   Joe Anderson as Sean McCaffrey
   William Baldwin as Brian McCaffrey
   Donald Sutherland as Ronald Bartel
   Alisha Bailey as Maggie Rening
   Alastair Mackenzie as Captain White



I  cattivi, stavolta, saranno agenti governativi che tentano di contrabbandare un missile fuori dagli Stati Uniti usando una serie di incendi come copertura. E se avete la sensazione che la trama sembri concepita in un episodio dei Simpson, non avete tutti i torti. Anni fa avevamo incontrato Ron Howard, e gli avevamo chiesto di impedire con tutte le sue forze un remake di Fuoco assassino. “Non posso fermarli se lo faranno”, ci aveva risposto



The sequel to the 1991 hit, follows an investigator with the Chicago F.D., who has to track down an arms dealer who use deadly fires as a distraction.

 





General
Unique ID                                : 244918110250009453232828944530744768045 (0xB8418322826CC91B8897CE34024B762D)
Complete name                            : Backdraft 2 (2019).1080p.h264.ita.eng.sub.ita.eng-MIRCrew\Backdraft 2 (2019).1080p.h264.ita.eng.sub.ita.eng-MIRCrew.mkv
Format                                   : Matroska
Format version                           : Version 2
File size                                : 2.42 GiB
Duration                                 : 1h 41mn
Overall bit rate                         : 3 396 Kbps
Movie name                               : MIRCrew
Encoded date                             : UTC 2019-08-10 12:39:08
Writing application                      : mkvmerge v5.8.0 ('No Sleep / Pillow') built on Sep  2 2012 15:37:04
Writing library                          : libebml v1.2.3 + libmatroska v1.3.0

Video
ID                                       : 1
Format                                   : AVC
Format/Info                              : Advanced Video Codec
Format profile                           : [email protected]
Format settings, CABAC                   : Yes
Format settings, ReFrames                : 4 frames
Codec ID                                 : V_MPEG4/ISO/AVC
Duration                                 : 1h 41mn
Bit rate                                 : 2 500 Kbps
Width                                    : 1 920 pixels
Height                                   : 960 pixels
Display aspect ratio                     : 2.000
Frame rate                               : 23.976 fps
Color space                              : YUV
Chroma subsampling                       : 4:2:0
Bit depth                                : 8 bits
Scan type                                : Progressive
Bits/(Pixel*Frame)                       : 0.057
Stream size                              : 1.73 GiB (72%)
Title                                    : MIRCrew
Writing library                          : x264 core 152 r2851M ba24899
Encoding settings                        : cabac=1 / ref=4 / deblock=1:-1:-1 / analyse=0x3:0x113 / me=umh / subme=9 / psy=1 / psy_rd=1.00:0.15 / mixed_ref=1 / me_range=24 / chroma_me=1 / trellis=2 / 8x8dct=1 / cqm=0 / deadzone=21,11 / fast_pskip=1 / chroma_qp_offset=-3 / threads=32 / lookahead_threads=4 / sliced_threads=0 / nr=0 / decimate=1 / interlaced=0 / bluray_compat=0 / constrained_intra=0 / bframes=3 / b_pyramid=2 / b_adapt=2 / b_bias=0 / direct=3 / weightb=1 / open_gop=0 / weightp=2 / keyint=250 / keyint_min=25 / scenecut=40 / intra_refresh=0 / rc_lookahead=50 / rc=2pass / mbtree=1 / bitrate=2500 / ratetol=1.0 / qcomp=0.60 / qpmin=0 / qpmax=69 / qpstep=4 / cplxblur=20.0 / qblur=0.5 / vbv_maxrate=31250 / vbv_bufsize=31250 / nal_hrd=none / filler=0 / ip_ratio=1.40 / aq=3:1.00
Language                                 : Italian
Default                                  : Yes
Forced                                   : No

Audio #1
ID                                       : 2
Format                                   : AC-3
Format/Info                              : Audio Coding 3
Mode extension                           : CM (complete main)
Codec ID                                 : A_AC3
Duration                                 : 1h 41mn
Bit rate mode                            : Constant
Bit rate                                 : 448 Kbps
Channel(s)                               : 6 channels
Channel positions                        : Front: L C R, Side: L R, LFE
Sampling rate                            : 48.0 KHz
Bit depth                                : 16 bits
Compression mode                         : Lossy
Stream size                              : 326 MiB (13%)
Title                                    : Ita Ac3 5.1
Language                                 : Italian
Default                                  : Yes
Forced                                   : No

Audio #2
ID                                       : 3
Format                                   : AC-3
Format/Info                              : Audio Coding 3
Mode extension                           : CM (complete main)
Codec ID                                 : A_AC3
Duration                                 : 1h 41mn
Bit rate mode                            : Constant
Bit rate                                 : 448 Kbps
Channel(s)                               : 6 channels
Channel positions                        : Front: L C R, Side: L R, LFE
Sampling rate                            : 48.0 KHz
Bit depth                                : 16 bits
Compression mode                         : Lossy
Stream size                              : 326 MiB (13%)
Title                                    : Eng Ac3 5.1
Language                                 : English
Default                                  : No
Forced                                   : No




Files:

Backdraft 2 (2019).1080p.h264.ita.eng.sub.ita.eng-MIRCrew
  • Backdraft 2 (2019).1080p.h264.ita.eng.sub.ita.eng-MIRCrew.eng.idx (133.8 KB)
  • Backdraft 2 (2019).1080p.h264.ita.eng.sub.ita.eng-MIRCrew.eng.srt (102.2 KB)
  • Backdraft 2 (2019).1080p.h264.ita.eng.sub.ita.eng-MIRCrew.eng.sub (20.3 MB)
  • Backdraft 2 (2019).1080p.h264.ita.eng.sub.ita.eng-MIRCrew.engnh.srt (110.9 KB)
  • Backdraft 2 (2019).1080p.h264.ita.eng.sub.ita.eng-MIRCrew.ita.srt (98.3 KB)
  • Backdraft 2 (2019).1080p.h264.ita.eng.sub.ita.eng-MIRCrew.mkv (2.4 GB)
  • Backdraft 2 (2019).1080p.h264.ita.eng.sub.ita.eng-MIRCrew.srt (0.2 KB)
  • leggete.txt (0.0 KB)
  • MIRCrew.png (182.3 KB)

There are currently no comments. Feel free to leave one :)

Code:

  • udp://tracker.opentrackr.org:1337/announce
  • udp://tracker.leechers-paradise.org:6969/announce
  • udp://tracker.coppersurfer.tk:6969/announce
  • udp://tracker.coppersurfer.tk:80/announce
  • udp://tracker.torrent.eu.org:451/announce
  • udp://tracker.pirateparty.gr:6969/announce
  • udp://tracker.eddie4.nl:6969/announce
  • udp://shadowshq.yi.org:6969/announce
  • udp://shadowshq.eddie4.nl:6969/announce
  • udp://inferno.demonoid.pw:3391/announce
  • udp://eddie4.nl:6969/announce
  • udp://9.rarbg.to:2730/announce
  • udp://9.rarbg.com:2710/announce
  • udp://9.rarbg.me:2780/announce
  • udp://62.138.0.158:6969/announce