Godzilla King Of Monsters (2019) 2160p HDRip 10bit HDR x265 AAC [...

  • Category Movies
  • Type UHD
  • Language English
  • Total size 3.7 GB
  • Uploaded By uploader6969
  • Downloads 931
  • Last checked 3 days ago
  • Date uploaded 4 days ago
  • Seeders 46
  • Leechers 21

Infohash : DC7E295A39E8AC8CD0DF5690D45B3E100913B59F

www.MoviePirate.club


Telegram Link



****************************
_____ _ _ 
|_ _|___ | || | _ _ 
| | / _ \| || || | | |
| || __/| || || |_| |
|_| \___||_||_| \__, |
|___/ 
****************************
Team Telly Proudly Presents
****************************
------------------
|Media Info|
------------------
Complete name                            : J:\Godzilla King Of Monsters (2019) 2160p HDRip 10bit HDR x265 AAC [Hindi (Clean) + English 5.1] Esubs - MoviePirate.mkv
Format                                   : Matroska
Format version                           : Version 4
File size                                : 3.67 GiB
Duration                                 : 2 h 11 min
Overall bit rate                         : 3 985 kb/s
Movie name                               : wWw.MoviePirate.Club
Encoded date                             : UTC 2019-08-14 01:53:26
Writing application                      : mkvmerge v35.0.0 ('All The Love In The World') 64-bit
Writing library                          : libebml v1.3.9 + libmatroska v1.5.2 / Lavf58.20.100

Video
ID                                       : 1
Format                                   : HEVC
Format/Info                              : High Efficiency Video Coding
Format profile                           : Main [email protected]@Main
Codec ID                                 : V_MPEGH/ISO/HEVC
Duration                                 : 2 h 11 min
Bit rate                                 : 3 550 kb/s
Width                                    : 3 840 pixels
Height                                   : 1 600 pixels
Display aspect ratio                     : 2.40:1
Frame rate mode                          : Constant
Frame rate                               : 23.976 (24000/1001) FPS
Color space                              : YUV
Chroma subsampling                       : 4:2:0
Bit depth                                : 10 bits
Bits/(Pixel*Frame)                       : 0.024
Stream size                              : 3.27 GiB (89%)
Title                                    : www.MoviePirate.Club
Writing library                          : x265 2.9:[Windows][GCC 8.2.0][64 bit] 10bit
Encoding settings                        : cpuid=1111039 / frame-threads=5 / numa-pools=32 / wpp / no-pmode / no-pme / no-psnr / no-ssim / log-level=2 / input-csp=1 / input-res=3840x1600 / interlace=0 / total-frames=0 / level-idc=0 / high-tier=1 / uhd-bd=0 / ref=3 / no-allow-non-conformance / no-repeat-headers / annexb / no-aud / no-hrd / info / hash=0 / no-temporal-layers / open-gop / min-keyint=24 / keyint=240 / gop-lookahead=0 / bframes=4 / b-adapt=0 / b-pyramid / bframe-bias=0 / rc-lookahead=15 / lookahead-slices=8 / scenecut=40 / radl=0 / no-intra-refresh / ctu=64 / min-cu-size=8 / no-rect / no-amp / max-tu-size=32 / tu-inter-depth=1 / tu-intra-depth=1 / limit-tu=0 / rdoq-level=0 / dynamic-rd=0.00 / no-ssim-rd / signhide / no-tskip / nr-intra=0 / nr-inter=0 / no-constrained-intra / no-strong-intra-smoothing / max-merge=2 / limit-refs=3 / no-limit-modes / me=1 / subme=2 / merange=57 / temporal-mvp / weightp / no-weightb / no-analyze-src-pics / deblock=0:0 / sao / no-sao-non-deblock / rd=2 / no-early-skip / rskip / fast-intra / no-tskip-fast / no-cu-lossless / no-b-intra / no-splitrd-skip / rdpenalty=0 / psy-rd=2.00 / psy-rdoq=0.00 / no-rd-refine / no-lossless / cbqpoffs=0 / crqpoffs=0 / rc=abr / bitrate=3500 / qcomp=0.60 / qpstep=4 / stats-write=0 / stats-read=0 / ipratio=1.40 / pbratio=1.30 / aq-mode=1 / aq-strength=1.00 / cutree / zone-count=0 / no-strict-cbr / qg-size=32 / no-rc-grain / qpmax=69 / qpmin=0 / no-const-vbv / sar=1 / overscan=0 / videoformat=5 / range=0 / colorprim=9 / transfer=16 / colormatrix=9 / chromaloc=0 / display-window=0 / max-cll=0,0 / min-luma=0 / max-luma=1023 / log2-max-poc-lsb=8 / vui-timing-info / vui-hrd-info / slices=1 / no-opt-qp-pps / no-opt-ref-list-length-pps / no-multi-pass-opt-rps / scenecut-bias=0.05 / no-opt-cu-delta-qp / no-aq-motion / no-hdr / no-hdr-opt / no-dhdr10-opt / no-idr-recovery-sei / analysis-reuse-level=5 / scale-factor=0 / refine-intra=0 / refine-inter=0 / refine-mv=0 / no-limit-sao / ctu-info=0 / no-lowpass-dct / refine-mv-type=0 / copy-pic=1 / max-ausize-factor=1.0 / no-dynamic-refine / no-single-sei
Default                                  : Yes
Forced                                   : No
Color range                              : Limited
Color primaries                          : BT.2020
Transfer characteristics                 : PQ
Matrix coefficients                      : BT.2020 non-constant

Audio #1
ID                                       : 2
Format                                   : AAC LC
Format/Info                              : Advanced Audio Codec Low Complexity
Codec ID                                 : A_AAC-2
Duration                                 : 2 h 11 min
Bit rate                                 : 384 kb/s
Channel(s)                               : 6 channels
Channel layout                           : C L R Ls Rs LFE
Sampling rate                            : 48.0 kHz
Frame rate                               : 46.875 FPS (1024 SPF)
Compression mode                         : Lossy
Delay relative to video                  : 1 s 23 ms
Stream size                              : 362 MiB (10%)
Title                                    : www.MoviePirate.Club
Language                                 : English
Default                                  : Yes
Forced                                   : No

Audio #2
ID                                       : 4
Format                                   : MPEG Audio
Format version                           : Version 2
Format profile                           : Layer 3
Format settings                          : Joint stereo / MS Stereo
Codec ID                                 : A_MPEG/L3
Codec ID/Hint                            : MP3
Duration                                 : 2 h 11 min
Bit rate mode                            : Constant
Bit rate                                 : 48.0 kb/s
Channel(s)                               : 2 channels
Sampling rate                            : 22.05 kHz
Frame rate                               : 38.281 FPS (576 SPF)
Compression mode                         : Lossy
Stream size                              : 45.2 MiB (1%)
Title                                    : www.MoviePirate.Club
Writing library                          : LAME3.100UUUUUUULAME
Language                                 : Hindi
Default                                  : No
Forced                                   : No

Text
ID                                       : 3
Format                                   : ASS
Codec ID                                 : S_TEXT/ASS
Codec ID/Info                            : Advanced Sub Station Alpha
Duration                                 : 2 h 10 min
Bit rate                                 : 74 b/s
Count of elements                        : 1476
Compression mode                         : Lossless
Stream size                              : 71.3 KiB (0%)
Title                                    : www.MoviePirate.Club
Language                                 : English
Default                                  : No
Forced                                   : No

Menu
00:00:00.000                             : :1
00:10:52.652                             : :2
00:18:05.084                             : :3
00:30:24.489                             : :4
00:45:14.712                             : :5
00:54:07.244                             : :6
01:05:37.267                             : :7
01:09:26.829                             : :8
01:19:26.095                             : :9
01:30:00.061                             : :10
01:38:29.904                             : :11
01:49:51.919                             : :12
01:59:20.487                             : :13
****************************
Tellytorrent.net 
Team Telly Official Site
****************************
www.MoviePirate.club
Enjoy Exclusives Content only on TellyTorrent.net



Files:

  • Godzilla King Of Monsters (2019) 2160p HDRip 10bit HDR x265 AAC [Hindi (Clean) + English 5.1] Esubs - MoviePirate.mkv (3.7 GB)

Comments

Code:

  • udp://tracker.opentrackr.org:1337/announce
  • //tracker1.itzmx.com:8080/announce
  • //tracker3.itzmx.com:6961/announce
  • udp://open.demonii.si:1337/announce
  • udp://tracker.tiny-vps.com:6969/announce
  • udp://thetracker.org:80/announce
  • udp://open.stealth.si:80/announce
  • udp://bt.firebit.co.uk:6969/announce
  • udp://tracker.leechers-paradise.org:6969/announce
  • udp://9.rarbg.to:2710/announce
  • udp://9.rarbg.me:2710/announce
  • udp://9.rarbg.com:2710/announce
  • udp://9.rarbg.me:2730/announce
  • udp://tracker.internetwarriors.net:1337/announce
  • //tracker.electro-torrent.pl:80/announce