Jeff Beck at Ronnie Scott's (2008)Mp-4 X264 1080p 5.1AAC[DaScubaD...

  • Category Music
  • Type Video
  • Language English
  • Total size 2.5 GB
  • Uploaded By dascuba1337
  • Downloads 69
  • Last checked 5 days ago
  • Date uploaded 1 week ago
  • Seeders 3
  • Leechers 2

Infohash : F4698F0DFC64F210D11D08B1AB0AC77AC229CCBD


IMDb Info for this Video
[youtube]wdX6ly6ftUM[/youtube]

General
Complete name : JeffBeck at RS\EVBRD333269.theatrical.mp4
Format : MPEG-4
Format profile : Base Media / Version 2
Codec ID : mp42 (mp42/isom/avc1)
File size : 2.47 GiB
Duration : 1 h 40 min
Overall bit rate mode : Variable
Overall bit rate : 3 528 kb/s
Movie name : EVBRD333269.theatrical
Album : EVBRD333269
Encoded date : UTC 2019-08-13 19:53:24
Tagged date : UTC 2019-08-13 21:31:05
Writing application : DVDFab 11.0.4.2
Cover : Yes

Video
ID : 1
Format : AVC
Format/Info : Advanced Video Codec
Format profile : [email protected]
Format settings : CABAC / 2 Ref Frames
Format settings, CABAC : Yes
Format settings, RefFrames : 2 frames
Format settings, GOP : M=1, N=30
Codec ID : avc1
Codec ID/Info : Advanced Video Coding
Duration : 1 h 40 min
Source duration : 1 h 40 min
Bit rate mode : Variable
Bit rate : 3 076 kb/s
Maximum bit rate : 4 662 kb/s
Width : 1 920 pixels
Height : 1 080 pixels
Display aspect ratio : 16:9
Frame rate mode : Constant
Frame rate : 29.970 (30000/1001) FPS
Color space : YUV
Chroma subsampling : 4:2:0
Bit depth : 8 bits
Scan type : Progressive
Bits/(Pixel*Frame) : 0.049
Stream size : 2.16 GiB (87%)
Source stream size : 2.16 GiB (87%)
Encoded date : UTC 2019-08-13 19:53:24
Tagged date : UTC 2019-08-13 21:31:05
Color primaries : BT.709
Transfer characteristics : BT.709
Matrix coefficients : BT.709
Menus : 3

Audio
ID : 2
Format : AAC
Format/Info : Advanced Audio Codec
Format profile : LC
Codec ID : mp4a-40-2
Duration : 1 h 40 min
Bit rate mode : Variable
Bit rate : 448 kb/s
Maximum bit rate : 453 kb/s
Channel(s) : 6 channels
Channel positions : Front: L C R, Side: L R, LFE
Sampling rate : 48.0 kHz
Frame rate : 46.875 FPS (1024 SPF)
Compression mode : Lossy
Stream size : 322 MiB (13%)
Title : English (aac 5.1)
Language : English
Default : Yes
Alternate group : 1
Encoded date : UTC 2019-08-13 19:53:24
Tagged date : UTC 2019-08-13 21:31:05

Files:

  • EVBRD333269.theatrical.mp4 (2.5 GB)

There are currently no comments. Feel free to leave one :)

Code:

  • udp://tracker.openbittorrent.com:80/announce
  • udp://tracker.opentrackr.org:1337/announce
  • udp://tracker.coppersurfer.tk:6969/announce
  • udp://9.rarbg.to:2710/announce