Sacred Games S02 Complete Hindi 1080p WEB-Rip x264 AC3 5.1 - MSUB...

  • Category Movies
  • Type Bollywood
  • Language Hindi
  • Total size 9.7 GB
  • Uploaded By TheFighter
  • Downloads 1556
  • Last checked 3 weeks ago
  • Date uploaded 1 month ago
  • Seeders 35
  • Leechers 14

Infohash : 2F35EFD3536BAE303C1B4E03749CF5CDE78FC148







Sacred Games S02 Complete Hindi 1080p WEB-Rip x264 AC3 5.1 - MSUBS ~ Ranvijay [Team SSX]



Buy RDP Online

General
Format                                   : Matroska
Format version                           : Version 4 / Version 2
File size                                : 1.33 GiB
Duration                                 : 56 min 18 s
Overall bit rate                         : 3 378 kb/s
Movie name                               : Sacred Games S02E01 Matsya Hindi 1080p WEB-Rip x264 AC3 5.1 - MSUBS ~ Ranvijay

Video
ID                                       : 1
Format                                   : AVC
Format/Info                              : Advanced Video Codec
Duration                                 : 56 min 18 s
Bit rate                                 : 3 000 kb/s
Width                                    : 1 920 pixels
Height                                   : 960 pixels
Display aspect ratio                     : 2.000
Frame rate mode                          : Constant
Frame rate                               : 25.000 FPS
Color space                              : YUV
Chroma subsampling                       : 4:2:0
Bit depth                                : 8 bits
Scan type                                : Progressive
Bits/(Pixel*Frame)                       : 0.065
Stream size                              : 1.18 GiB (89%)
Title                                    : ~Ranvijay~

Audio
ID                                       : 2
Format                                   : AC-3
Format/Info                              : Audio Coding 3
Codec ID                                 : A_AC3
Duration                                 : 56 min 18 s
Bit rate mode                            : Constant
Bit rate                                 : 384 kb/s
Channel(s)                               : 6 channels
Channel positions                        : Front: L C R, Side: L R, LFE
Sampling rate                            : 48.0 kHz
Frame rate                               : 31.250 FPS (1536 SPF)
Bit depth                                : 16 bits
Compression mode                         : Lossy
Stream size                              : 155 MiB (11%)
Title                                    : ~Ranvijay~
Language                                 : Hindi
Service kind                             : Complete Main
Default                                  : Yes
Forced                                   : Yes

Text #1
ID                                       : 3
Format                                   : UTF-8
Codec ID                                 : S_TEXT/UTF8
Codec ID/Info                            : UTF-8 Plain Text
Duration                                 : 4 s 320 ms
Bit rate                                 : 81 b/s
Count of elements                        : 1
Stream size                              : 44.0 Bytes (0%)
Title                                    : ~Ranvijay~
Language                                 : English
Default                                  : Yes
Forced                                   : Yes

Text #2
ID                                       : 4
Format                                   : UTF-8
Codec ID                                 : S_TEXT/UTF8
Codec ID/Info                            : UTF-8 Plain Text
Duration                                 : 50 min 40 s
Bit rate                                 : 50 b/s
Count of elements                        : 609
Stream size                              : 18.6 KiB (0%)
Title                                    : ~Ranvijay~
Language                                 : English
Default                                  : No
Forced                                   : No

Text #3
ID                                       : 5
Format                                   : UTF-8
Codec ID                                 : S_TEXT/UTF8
Codec ID/Info                            : UTF-8 Plain Text
Duration                                 : 51 min 16 s
Bit rate                                 : 66 b/s
Count of elements                        : 718
Stream size                              : 25.0 KiB (0%)
Title                                    : ~Ranvijay~
Language                                 : English
Default                                  : No
Forced                                   : No

Text #4
ID                                       : 6
Format                                   : UTF-8
Codec ID                                 : S_TEXT/UTF8
Codec ID/Info                            : UTF-8 Plain Text
Duration                                 : 50 min 27 s
Bit rate                                 : 10 b/s
Count of elements                        : 45
Stream size                              : 4.02 KiB (0%)
Title                                    : ~Ranvijay~
Language                                 : Hindi
Default                                  : No
Forced                                   : Yes

Text #5
ID                                       : 7
Format                                   : UTF-8
Codec ID                                 : S_TEXT/UTF8
Codec ID/Info                            : UTF-8 Plain Text
Duration                                 : 51 min 30 s
Bit rate                                 : 142 b/s
Count of elements                        : 682
Stream size                              : 53.6 KiB (0%)
Title                                    : ~Ranvijay~
Language                                 : Hindi
Default                                  : No
Forced                                   : No


















Don't walk as you are king, walk as you don't care who the king is....!!


Files:

Sacred Games S02 Complete Hindi 1080p WEB-Rip x264 AC3 5.1 - MSUBS ~ Ranvijay
  • SpecialRDP - Premium & Affordable Web Hosting Solution.url (0.0 KB)
  • Sample - Sacred Games S02E01 Matsya Hindi 1080p WEB-Rip x264 AC3 5.1 - MSUBS ~ Ranvijay.mkv (30.6 MB)
  • Sacred Games S02E06 Azrael Hindi 1080p WEB-Rip x264 AC3 5.1 - MSUBS ~ Ranvijay.mkv (994.5 MB)
  • Sacred Games S02E07 Torino Hindi 1080p WEB-Rip x264 AC3 5.1 - MSUBS ~ Ranvijay.mkv (1.1 GB)
  • Sacred Games S02E02 Siduri Hindi 1080p WEB-Rip x264 AC3 5.1 - MSUBS ~ Ranvijay.mkv (1.1 GB)
  • Sacred Games S02E05 Vikarna Hindi 1080p WEB-Rip x264 AC3 5.1 - MSUBS ~ Ranvijay.mkv (1.2 GB)
  • Sacred Games S02E03 Apasmara Hindi 1080p WEB-Rip x264 AC3 5.1 - MSUBS ~ Ranvijay.mkv (1.2 GB)
  • Sacred Games S02E04 Bardo Hindi 1080p WEB-Rip x264 AC3 5.1 - MSUBS ~ Ranvijay.mkv (1.3 GB)
  • Sacred Games S02E01 Matsya Hindi 1080p WEB-Rip x264 AC3 5.1 - MSUBS ~ Ranvijay.mkv (1.3 GB)
  • Sacred Games S02E08 Radcliffe Hindi 1080p WEB-Rip x264 AC3 5.1 - MSUBS ~ Ranvijay.mkv (1.4 GB)

Comments

Code:

  • udp://tracker.pirateparty.gr:6969/announce
  • udp://tracker.tiny-vps.com:6969/announce
  • udp://open.stealth.si:80/announce
  • udp://tracker.opentrackr.org:1337/announce
  • udp://tracker.internetwarriors.net:1337/announce
  • udp://9.rarbg.to:2710/announce
  • udp://tracker1.itzmx.com:8080/announce
  • udp://9.rarbg.me:2740/announce
  • udp://thetracker.org:80/announce
  • udp://tracker.coppersurfer.tk:6969/announce
  • https://tracker.fastdownload.xyz:443/announce
  • udp://torrentclub.tech:6969/announce
  • udp://open.demonii.si:1337/announce
  • https://seeders-paradise.org:443/announce
  • http://share.camoe.cn:8080/announce
  • udp://9.rarbg.com:2740/announce
  • udp://9.rarbg.me:2790/announce
  • http://open.acgnxtracker.com:80/announce
  • udp://9.rarbg.to:2800/announce
  • udp://thetracker.org:80/announce
  • udp://tracker.opentrackr.org:1337/announce
  • udp://tracker.coppersurfer.tk:6969/announce
  • udp://tracker.pirateparty.gr:6969/announce
  • udp://shadowshq.yi.org:6969/announce
  • udp://eddie4.nl:6969/announce
  • udp://tracker.leechers-paradise.org:6969/announce
  • udp://tracker.opentrackr.org:1337/announce
  • udp://p4p.arenabg.ch:1337/announce
  • udp://p4p.arenabg.com:1337/announce
  • udp://9.rarbg.me:2720/announce
  • udp://9.rarbg.to:2710/announce
  • udp://ipv4.tracker.harry.lu:80/announce
  • udp://tracker.grepler.com:6969/announce
  • udp://public.popcorn-tracker.org:6969/announce
  • udp://tracker.opentrackr.org:1337/announce
  • udp://tracker.zer0day.to:1337/announce
  • udp://tracker.leechers-paradise.org:6969/announce
  • udp://coppersurfer.tk:6969/announce
  • https://bwt.pw/announce.php