The Tashkent Files (2019) 720p WEB-Rip x264 AC3 - ESUBS ~ Ranvija...

  • Category Movies
  • Type Bollywood
  • Language Hindi
  • Total size 1.5 GB
  • Uploaded By TheFighter
  • Downloads 2928
  • Last checked 3 weeks ago
  • Date uploaded 1 month ago
  • Seeders 45
  • Leechers 15

The Tashkent Files

DramaMysteryThriller

The Tashkent Files is a thriller that revolves around the mysterious death of India's 2nd Prime Minister Shri Lal Bahadur Shastri and attempts to uncover if he had actually died a natural death, or, as alleged, was assassinated.

Infohash : 54328988F5107132D25ABDCA38D093B5D8A1E058







The Tashkent Files (2019) 720p WEB-Rip x264 AC3 - ESUBS ~ Ranvijay [Team SSX]



Buy RDP Online

General
Format                                   : Matroska
Format version                           : Version 4 / Version 2
File size                                : 1.44 GiB
Duration                                 : 2 h 19 min
Overall bit rate                         : 1 478 kb/s
Movie name                               : The Tashkent Files (2019) 720p WEB-Rip x264 AC3 - ESUBS ~ Ranvijay

Video
ID                                       : 1
Format                                   : AVC
Format/Info                              : Advanced Video Codec
Duration                                 : 2 h 19 min
Bit rate                                 : 1 284 kb/s
Width                                    : 1 280 pixels
Height                                   : 536 pixels
Display aspect ratio                     : 2.40:1
Frame rate mode                          : Constant
Frame rate                               : 25.000 FPS
Color space                              : YUV
Chroma subsampling                       : 4:2:0
Bit depth                                : 8 bits
Scan type                                : Progressive
Bits/(Pixel*Frame)                       : 0.075
Stream size                              : 1.25 GiB (87%)
Title                                    : ~Ranvijay~

Audio
ID                                       : 2
Format                                   : AC-3
Format/Info                              : Audio Coding 3
Codec ID                                 : A_AC3
Duration                                 : 2 h 19 min
Bit rate mode                            : Constant
Bit rate                                 : 192 kb/s
Channel(s)                               : 2 channels
Channel positions                        : Front: L R
Sampling rate                            : 48.0 kHz
Frame rate                               : 31.250 FPS (1536 SPF)
Bit depth                                : 16 bits
Compression mode                         : Lossy
Stream size                              : 191 MiB (13%)
Title                                    : ~Ranvijay~
Service kind                             : Complete Main
Default                                  : Yes
Forced                                   : No

Text #1
ID                                       : 3
Format                                   : UTF-8
Codec ID                                 : S_TEXT/UTF8
Codec ID/Info                            : UTF-8 Plain Text
Duration                                 : 2 h 12 min
Bit rate                                 : 78 b/s
Count of elements                        : 2114
Stream size                              : 76.2 KiB (0%)
Title                                    : English
Language                                 : English
Default                                  : Yes
Forced                                   : Yes

Text #2
ID                                       : 4
Format                                   : UTF-8
Codec ID                                 : S_TEXT/UTF8
Codec ID/Info                            : UTF-8 Plain Text
Duration                                 : 2 h 12 min
Bit rate                                 : 140 b/s
Count of elements                        : 2114
Stream size                              : 136 KiB (0%)
Title                                    : English
Language                                 : English
Default                                  : No
Forced                                   : No
















[color=#FF0000]Don't walk as you are king, walk as you don't care who the king is....!!


[/color]


Files:

The Tashkent Files (2019) 720p WEB-Rip x264 AC3 - ESUBS ~ Ranvijay
  • SpecialRDP - Premium & Affordable Web Hosting Solution.url (0.0 KB)
  • Sample - The Tashkent Files (2019) 720p WEB-Rip x264 AC3 - ESUBS ~ Ranvijay.mkv (21.2 MB)
  • The Tashkent Files (2019) 720p WEB-Rip x264 AC3 - ESUBS ~ Ranvijay.mkv (1.4 GB)

Comments

Code:

  • udp://tracker.pirateparty.gr:6969/announce
  • udp://tracker.tiny-vps.com:6969/announce
  • udp://open.stealth.si:80/announce
  • udp://tracker.opentrackr.org:1337/announce
  • udp://tracker.internetwarriors.net:1337/announce
  • udp://9.rarbg.to:2710/announce
  • udp://tracker1.itzmx.com:8080/announce
  • udp://9.rarbg.me:2740/announce
  • udp://thetracker.org:80/announce
  • udp://tracker.coppersurfer.tk:6969/announce
  • https://tracker.fastdownload.xyz:443/announce
  • udp://torrentclub.tech:6969/announce
  • udp://open.demonii.si:1337/announce
  • https://seeders-paradise.org:443/announce
  • http://share.camoe.cn:8080/announce
  • udp://9.rarbg.com:2740/announce
  • udp://9.rarbg.me:2790/announce
  • http://open.acgnxtracker.com:80/announce
  • udp://9.rarbg.to:2800/announce
  • udp://thetracker.org:80/announce
  • udp://tracker.opentrackr.org:1337/announce
  • udp://tracker.coppersurfer.tk:6969/announce
  • udp://tracker.pirateparty.gr:6969/announce
  • udp://shadowshq.yi.org:6969/announce
  • udp://eddie4.nl:6969/announce
  • udp://tracker.leechers-paradise.org:6969/announce
  • udp://tracker.opentrackr.org:1337/announce
  • udp://p4p.arenabg.ch:1337/announce
  • udp://p4p.arenabg.com:1337/announce
  • udp://9.rarbg.me:2720/announce
  • udp://9.rarbg.to:2710/announce
  • udp://ipv4.tracker.harry.lu:80/announce
  • udp://tracker.grepler.com:6969/announce
  • udp://public.popcorn-tracker.org:6969/announce
  • udp://tracker.opentrackr.org:1337/announce
  • udp://tracker.zer0day.to:1337/announce
  • udp://tracker.leechers-paradise.org:6969/announce
  • udp://coppersurfer.tk:6969/announce
  • https://bwt.pw/announce.php