Chhichhore 2019 Hindi 720pRip x264 AAC { TaRa }.mkv

  • Category Movies
  • Type Bollywood
  • Language Hindi
  • Total size 1.1 GB
  • Uploaded By SkTara
  • Downloads 32267
  • Last checked 1 week ago
  • Date uploaded 2 weeks ago
  • Seeders 163
  • Leechers 24

Chhichhore

RomanceComedy

Raghav, son of high achieving parents succumbs to the pressure that comes with cut-throat entrance exams. As he battles for life in a hospital, his parents regroup with their friends after decades. Together, this older generation, goes on a nostalgia trip reminiscing their college days, hoping their bittersweet memories will help save a teenager, who has lost all will to live.

Infohash : 59A56CFC09B276B1C9D1D6EA50EAAD254CEA7E75


Chhichhore 2019 Hindi 720p Pre-DVD Rip x264 AAC { TaRa }.mkv


==================================================================
General
Complete name : Chhichhore 2019 Hindi 720p Pre-DVD Rip x264 AAC { TaRa }.mkv
Format : Matroska
Format version : Version 4
File size : 1.12 GiB
Duration : 2 h 18 min
Overall bit rate : 1 158 kb/s
===================================================================
Video
ID : 1
Format : AVC
Format/Info : Advanced Video Codec
Format profile : [email protected]
Format settings : CABAC / 4 Ref Frames
Format settings, CABAC : Yes
Format settings, Reference : 4 frames
Codec ID : V_MPEG4/ISO/AVC
Duration : 2 h 18 min
Bit rate : 1 000 kb/s
Width : 1 280 pixels
Height : 544 pixels
Display aspect ratio : 2.35:1
Frame rate mode : Constant
Frame rate : 23.976 (23976/1000) FPS
Color space : YUV
Chroma subsampling : 4:2:0
Bit depth : 8 bits
Scan type : Progressive
Bits/(Pixel*Frame) : 0.060
Stream size : 988 MiB (86%)
Title : .....::::: TaRa :::::.....
Writing library : x264 core 132
Language : Hindi
Default : Yes
Forced : No
===================================================================
Audio
ID : 2
Format : AAC LC
Format/Info : Advanced Audio Codec Low Complexity
Codec ID : A_AAC-2
Duration : 2 h 18 min
Bit rate : 158 kb/s
Channel(s) : 2 channels
Channel layout : L R
Sampling rate : 44.1 kHz
Frame rate : 43.066 FPS (1024 SPF)
Compression mode : Lossy
Delay relative to video : -84 ms
Stream size : 156 MiB (14%)
Title : .....::::: TaRa :::::.....
Language : Hindi
Default : Yes
Forced : No
===================================================================





























Files:

Chhichhore 2019 Hindi 720p Pre-DVD Rip x264 AAC { TaRa }.mkv
  • Torrent TaRa Digital Team.txt (0.7 KB)
  • Torrent TaRa Digital Team PC Info.nfo (6.5 KB)
  • chhichhore-trailer.jpg (147.7 KB)
  • Chhichhore_.jpg (1.3 MB)
  • Chhichhore 2019 Hindi 720p Pre-DVD Rip x264 AAC { TaRa }.mkv (1.1 GB)

There are currently no comments. Feel free to leave one :)

Code:

  • udp://tracker.coppersurfer.tk:6969/announce
  • udp://tracker.leechers-paradise.org:6969/announce
  • udp://bt.xxx-tracker.com:2710/announce
  • udp://tracker.internetwarriors.net:1337/announce
  • udp://tracker.openbittorrent.com:80/announce
  • udp://explodie.org:6969/announce
  • udp://tracker.opentrackr.org:1337/announce
  • udp://tracker.tiny-vps.com:6969/announce
  • udp://open.demonii.si:1337/announce
  • udp://tracker.torrent.eu.org:451/announce
  • udp://tracker.pirateparty.gr:6969/announce
  • udp://ipv4.tracker.harry.lu:80/announce
  • udp://tracker.cyberia.is:6969/announce
  • udp://9.rarbg.to:2780/announce
  • udp://denis.stalker.upeer.me:6969/announce