Men in Black International (2019) (1080p BluRay x265 HEVC 10bit A...

  • Category Movies
  • Type HEVC/x265
  • Language English
  • Total size 1.8 GB
  • Uploaded By UTRCorp
  • Downloads 1556
  • Last checked 1 week ago
  • Date uploaded 1 week ago
  • Seeders 66
  • Leechers 20

Men in Black: International

ActionComedyScience FictionAdventure

The Men in Black have always protected the Earth from the scum of the universe. In this new adventure, they tackle their biggest, most global threat to date: a mole in the Men in Black organization.

Infohash : ECD9C7147F03D282830C1149961F5F92CE9EE78D






Media Information


Code:

General
Format                                   : Matroska
Format version                           : Version 4 / Version 2
File size                                : 1.76 GiB
Duration                                 : 1 h 54 min
Overall bit rate                         : 2 195 kb/s
Movie name                               : Men in Black International 2019  (1080p x265 q22 FS88 Joy)[UTR]
Encoded date                             : UTC 2019-09-08 16:08:42
Writing application                      : mkvmerge v32.0.0 ('Astral Progressions') 64-bit
Writing library                          : libebml v1.3.7 + libmatroska v1.5.0
Cover                                    : Yes
Attachments                              : cover.jpg
Writing frontend                         : StaxRip v2.0.2.0, Encoded by JoyBell

Video
ID                                       : 1
Format                                   : HEVC
Format/Info                              : High Efficiency Video Coding
Format profile                           : Main [email protected]@Main
Codec ID                                 : V_MPEGH/ISO/HEVC
Duration                                 : 1 h 54 min
Bit rate                                 : 1 529 kb/s
Width                                    : 1 920 pixels
Height                                   : 960 pixels
Display aspect ratio                     : 2.000
Frame rate mode                          : Constant
Frame rate                               : 23.976 (24000/1001) FPS
Color space                              : YUV
Chroma subsampling                       : 4:2:0
Bit depth                                : 10 bits
Bits/(Pixel*Frame)                       : 0.035
Stream size                              : 1.23 GiB (70%)
Writing library                          : x265 3.0_Au+24-4217e691387c:[Windows][GCC 9.1.1][64 bit] 10bit
Encoding settings                        : rc=crf / crf=21.5000 / qcomp=0.60 / qpstep=4 / stats-write=0 / stats-read=0 / qpmax=69 / qpmin=0 / no-lossless / no-cu-lossless / hevc-aq / no-aq-motion / aq-mode=3 / aq-strength=1.00 / cbqpoffs=0 / crqpoffs=0 / ipratio=1.40 / pbratio=1.30 / psy-rd=2.50 / psy-rdoq=0.80 / deblock=-2:-2 / ref=4 / limit-refs=3 / limit-modes / bframes=8 / b-adapt=2 / bframe-bias=20 / b-pyramid / no-b-intra / weightp / no-weightb / keyint=250 / min-keyint=23 / rc-lookahead=80 / gop-lookahead=0 / scenecut=40 / scenecut-bias=0.05 / ctu=64 / min-cu-size=8 / me=3 / subme=5 / merange=57 / rd=4 / no-rd-refine / ssim-rd / dynamic-rd=0.00 / rdoq-level=2 / rdpenalty=0 / cutree / sao / no-limit-sao / no-sao-non-deblock / rect / no-amp / open-gop / max-tu-size=32 / tu-inter-depth=1 / tu-intra-depth=1 / limit-tu=0 / qg-size=32 / wpp / no-pmode / no-pme / no-psnr / ssim / no-tskip / constrained-intra / strong-intra-smoothing / max-merge=5 / nr-intra=0 / nr-inter=0 / input-csp=1 / input-res=1920x960 / interlace=0 / total-frames=165193 / level-idc=0 / high-tier=1cpuid=1111039 / frame-threads=3 / numa-pools=12 / log-level=2 / uhd-bd=0 / lookahead-slices=4 / radl=0 / no-splice / no-intra-refresh / signhide / temporal-mvp / no-analyze-src-pics / early-skip / rskip / no-fast-intra / no-tskip-fast / no-splitrd-skip / zone-count=0 / no-strict-cbr / no-rc-grain / no-const-vbv / no-allow-non-conformance / no-repeat-headers / annexb / no-aud / no-hrd / info / hash=0 / no-temporal-layers / sar=0 / overscan=0 / videoformat=5 / range=0 / colorprim=2 / transfer=2 / colormatrix=2 / chromaloc=0 / display-window=0 / max-cll=0,0 / min-luma=0 / max-luma=1023 / log2-max-poc-lsb=8 / vui-timing-info / vui-hrd-info / slices=1 / no-opt-qp-pps / no-opt-ref-list-length-pps / no-multi-pass-opt-rps / no-opt-cu-delta-qp / no-hdr / no-hdr-opt / no-dhdr10-opt / no-idr-recovery-sei / analysis-reuse-level=5 / scale-factor=0 / refine-intra=0 / refine-inter=0 / refine-mv=0 / refine-ctu-distortion=0 / ctu-info=0 / no-lowpass-dct / refine-analysis-type=0 / copy-pic=1 / max-ausize-factor=1.0 / no-dynamic-refine / no-single-sei / no-svt / qp-adaptation-range=1.00
Default                                  : Yes
Forced                                   : No

Audio #1
ID                                       : 2
Format                                   : AAC
Format/Info                              : Advanced Audio Codec
Format profile                           : LC
Codec ID                                 : A_AAC
Duration                                 : 1 h 54 min
Bit rate                                 : 438 kb/s
Channel(s)                               : 8 channels
Channel positions                        : Front: L C R, Side: L R, Back: L R, LFE
Sampling rate                            : 48.0 kHz
Frame rate                               : 46.875 FPS (1024 spf)
Compression mode                         : Lossy
Delay relative to video                  : 9 ms
Stream size                              : 360 MiB (20%)
Language                                 : English
Default                                  : No
Forced                                   : No

Audio #2
ID                                       : 3
Format                                   : AAC
Format/Info                              : Advanced Audio Codec
Format profile                           : LC
Codec ID                                 : A_AAC
Duration                                 : 1 h 54 min
Bit rate                                 : 91.0 kb/s
Channel(s)                               : 2 channels
Channel positions                        : Front: L R
Sampling rate                            : 48.0 kHz
Frame rate                               : 46.875 FPS (1024 spf)
Compression mode                         : Lossy
Delay relative to video                  : 9 ms
Stream size                              : 74.7 MiB (4%)
Language                                 : French
Default                                  : No
Forced                                   : No

Audio #3
ID                                       : 4
Format                                   : AAC
Format/Info                              : Advanced Audio Codec
Format profile                           : LC
Codec ID                                 : A_AAC
Duration                                 : 1 h 54 min
Bit rate                                 : 91.6 kb/s
Channel(s)                               : 2 channels
Channel positions                        : Front: L R
Sampling rate                            : 48.0 kHz
Frame rate                               : 46.875 FPS (1024 spf)
Compression mode                         : Lossy
Delay relative to video                  : 9 ms
Stream size                              : 75.3 MiB (4%)
Language                                 : Spanish
Default                                  : No
Forced                                   : No

Subtitle #1
ID                                       : 5
Format                                   : PGS
Muxing mode                              : zlib
Codec ID                                 : S_HDMV/PGS
Codec ID/Info                            : Picture based subtitle format used on BDs/HD-DVDs
Duration                                 : 1 h 44 min
Bit rate                                 : 45.5 kb/s
Count of elements                        : 3560
Stream size                              : 34.1 MiB (2%)
Language                                 : English
Default                                  : No
Forced                                   : No

Subtitle #2
ID                                       : 6
Format                                   : UTF-8
Codec ID                                 : S_TEXT/UTF8
Codec ID/Info                            : UTF-8 Plain Text
Duration                                 : 1 h 43 min
Bit rate                                 : 68 b/s
Count of elements                        : 1536
Stream size                              : 51.8 KiB (0%)
Language                                 : English
Default                                  : No
Forced                                   : No

Subtitle #3
ID                                       : 7
Format                                   : UTF-8
Codec ID                                 : S_TEXT/UTF8
Codec ID/Info                            : UTF-8 Plain Text
Duration                                 : 1 h 43 min
Bit rate                                 : 73 b/s
Count of elements                        : 1720
Stream size                              : 55.6 KiB (0%)
Language                                 : English
Default                                  : No
Forced                                   : No

Subtitle #4
ID                                       : 8
Format                                   : VobSub
Muxing mode                              : zlib
Codec ID                                 : S_VOBSUB
Codec ID/Info                            : Picture based subtitle format used on DVDs
Duration                                 : 1 h 43 min
Bit rate                                 : 11.6 kb/s
Count of elements                        : 1485
Stream size                              : 8.59 MiB (0%)
Language                                 : English
Default                                  : No
Forced                                   : No

Subtitle #5
ID                                       : 9
Format                                   : VobSub
Muxing mode                              : zlib
Codec ID                                 : S_VOBSUB
Codec ID/Info                            : Picture based subtitle format used on DVDs
Duration                                 : 1 h 53 min
Bit rate                                 : 8 203 b/s
Count of elements                        : 1471
Stream size                              : 6.64 MiB (0%)
Language                                 : French
Default                                  : No
Forced                                   : No

Subtitle #6
ID                                       : 10
Format                                   : VobSub
Muxing mode                              : zlib
Codec ID                                 : S_VOBSUB
Codec ID/Info                            : Picture based subtitle format used on DVDs
Duration                                 : 1 h 53 min
Bit rate                                 : 9 930 b/s
Count of elements                        : 1427
Stream size                              : 8.07 MiB (0%)
Language                                 : Spanish
Default                                  : No
Forced                                   : No

Subtitle #7
ID                                       : 11
Format                                   : VobSub
Muxing mode                              : zlib
Codec ID                                 : S_VOBSUB
Codec ID/Info                            : Picture based subtitle format used on DVDs
Duration                                 : 1 h 53 min
Bit rate                                 : 105 b/s
Count of elements                        : 19
Stream size                              : 87.4 KiB (0%)
Language                                 : Spanish
Default                                  : No
Forced                                   : No

Subtitle #8
ID                                       : 12
Format                                   : VobSub
Muxing mode                              : zlib
Codec ID                                 : S_VOBSUB
Codec ID/Info                            : Picture based subtitle format used on DVDs
Duration                                 : 1 h 10 min
Bit rate                                 : 113 b/s
Count of elements                        : 12
Stream size                              : 58.5 KiB (0%)
Language                                 : French
Default                                  : No
Forced                                   : No

Subtitle #9
ID                                       : 13
Format                                   : VobSub
Muxing mode                              : zlib
Codec ID                                 : S_VOBSUB
Codec ID/Info                            : Picture based subtitle format used on DVDs
Duration                                 : 1 h 10 min
Bit rate                                 : 113 b/s
Count of elements                        : 12
Stream size                              : 58.5 KiB (0%)
Language                                 : French
Default                                  : No
Forced                                   : No

Subtitle #10
ID                                       : 14
Format                                   : UTF-8
Codec ID                                 : S_TEXT/UTF8
Codec ID/Info                            : UTF-8 Plain Text
Duration                                 : 1 h 45 min
Bit rate                                 : 101 b/s
Count of elements                        : 1827
Stream size                              : 77.8 KiB (0%)
Language                                 : Arabic
Default                                  : No
Forced                                   : No

Subtitle #11
ID                                       : 15
Format                                   : UTF-8
Codec ID                                 : S_TEXT/UTF8
Codec ID/Info                            : UTF-8 Plain Text
Duration                                 : 1 h 53 min
Bit rate                                 : 45 b/s
Count of elements                        : 1460
Stream size                              : 37.6 KiB (0%)
Language                                 : Chinese
Default                                  : No
Forced                                   : No

Subtitle #12
ID                                       : 16
Format                                   : UTF-8
Codec ID                                 : S_TEXT/UTF8
Codec ID/Info                            : UTF-8 Plain Text
Duration                                 : 1 h 43 min
Bit rate                                 : 56 b/s
Count of elements                        : 1153
Stream size                              : 42.7 KiB (0%)
Language                                 : Danish
Default                                  : No
Forced                                   : No

Subtitle #13
ID                                       : 17
Format                                   : UTF-8
Codec ID                                 : S_TEXT/UTF8
Codec ID/Info                            : UTF-8 Plain Text
Duration                                 : 1 h 43 min
Bit rate                                 : 75 b/s
Count of elements                        : 1531
Stream size                              : 56.9 KiB (0%)
Language                                 : Dutch
Default                                  : No
Forced                                   : No

Subtitle #14
ID                                       : 18
Format                                   : UTF-8
Codec ID                                 : S_TEXT/UTF8
Codec ID/Info                            : UTF-8 Plain Text
Duration                                 : 1 h 45 min
Bit rate                                 : 104 b/s
Count of elements                        : 1463
Stream size                              : 80.6 KiB (0%)
Language                                 : Persian
Default                                  : No
Forced                                   : No

Subtitle #15
ID                                       : 19
Format                                   : UTF-8
Codec ID                                 : S_TEXT/UTF8
Codec ID/Info                            : UTF-8 Plain Text
Duration                                 : 1 h 43 min
Bit rate                                 : 127 b/s
Count of elements                        : 1496
Stream size                              : 96.8 KiB (0%)
Language                                 : Greek
Default                                  : No
Forced                                   : No

Subtitle #16
ID                                       : 20
Format                                   : UTF-8
Codec ID                                 : S_TEXT/UTF8
Codec ID/Info                            : UTF-8 Plain Text
Duration                                 : 1 h 45 min
Bit rate                                 : 54 b/s
Count of elements                        : 1689
Stream size                              : 42.3 KiB (0%)
Language                                 : Indonesian
Default                                  : No
Forced                                   : No

Subtitle #17
ID                                       : 21
Format                                   : UTF-8
Codec ID                                 : S_TEXT/UTF8
Codec ID/Info                            : UTF-8 Plain Text
Duration                                 : 1 h 43 min
Bit rate                                 : 61 b/s
Count of elements                        : 1484
Stream size                              : 46.5 KiB (0%)
Language                                 : Portuguese
Default                                  : No
Forced                                   : No

Subtitle #18
ID                                       : 22
Format                                   : UTF-8
Codec ID                                 : S_TEXT/UTF8
Codec ID/Info                            : UTF-8 Plain Text
Duration                                 : 1 h 43 min
Bit rate                                 : 75 b/s
Count of elements                        : 1835
Stream size                              : 57.3 KiB (0%)
Language                                 : Spanish
Default                                  : No
Forced                                   : No

Subtitle #19
ID                                       : 23
Format                                   : UTF-8
Codec ID                                 : S_TEXT/UTF8
Codec ID/Info                            : UTF-8 Plain Text
Duration                                 : 1 h 54 min
Bit rate                                 : 124 b/s
Count of elements                        : 1441
Stream size                              : 105 KiB (0%)
Language                                 : Thai
Default                                  : No
Forced                                   : No

Subtitle #20
ID                                       : 24
Format                                   : UTF-8
Codec ID                                 : S_TEXT/UTF8
Codec ID/Info                            : UTF-8 Plain Text
Duration                                 : 1 h 43 min
Bit rate                                 : 85 b/s
Count of elements                        : 1476
Stream size                              : 64.9 KiB (0%)
Language                                 : Vietnamese
Default                                  : No
Forced                                   : No

Menu
00:00:00.000                             : en:Chapter 01
00:07:58.394                             : en:Chapter 02
00:15:32.890                             : en:Chapter 03
00:20:09.583                             : en:Chapter 04
00:27:17.135                             : en:Chapter 05
00:34:29.650                             : en:Chapter 06
00:46:10.267                             : en:Chapter 07
00:50:31.653                             : en:Chapter 08
00:59:01.204                             : en:Chapter 09
01:03:12.914                             : en:Chapter 10
01:10:51.413                             : en:Chapter 11
01:14:35.888                             : en:Chapter 12
01:25:31.376                             : en:Chapter 13
01:28:49.574                             : en:Chapter 14
01:34:29.246                             : en:Chapter 15
01:43:31.830                             : en:Chapter 16




Source Information


Code:

Release: Men.in.Black.International.2019.2160p.BluRay.REMUX.HEVC..DTS-HD.MA.TrueHD.7.1.Atmos-FGT.mkv (45.30 GBs)


Code:


Note From UTR
Whilst we are happy for our releases to be re-posted on a platform we aren't on, please do so in an 'as-is' format. We ask that you do not create a new torrent, include all descriptions you see above including the UTR logo, tags, notes and screenshots. If you'd like to become a permanent poster on a website we don't post to, feel free to get in contact with a UTR member.
If possible please donate: BTC 1QA5fum5AyXvWzdVCkQzUNvw3Ef15fHRaR





Files:

  • Men in Black International 2019 (1080p x265 q22 FS88 Joy).mkv (1.8 GB)

Comments

Code:

  • udp://tracker.coppersurfer.tk:6969/announce
  • udp://9.rarbg.com:2710/announce
  • udp://9.rarbg.to:2710/announce
  • udp://tracker.torrent.eu.org:451/announce
  • udp://exodus.desync.com:6969/announce
  • udp://tracker.tiny-vps.com:6969/announce
  • udp://open.demonii.si:1337/announce
  • udp://tracker.opentrackr.org:1337/announce
  • udp://tracker.internetwarriors.net:1337/announce