Anna.2019.1080P.Webrip.X264-Obey[TGx]

  • Category Movies
  • Type HD
  • Language English
  • Total size 2.1 GB
  • Uploaded By 0bey
  • Downloads 308
  • Last checked 2 days ago
  • Date uploaded 1 week ago
  • Seeders 22
  • Leechers 3

Anna

ThrillerAction

Beneath Anna Poliatova's striking beauty lies a secret that will unleash her indelible strength and skill to become one of the world's most feared government assassins.

Infohash : E2573E8B1DA790219A797ADDC846A1E9716B6229

Make sure your Uploads are provided by Obey


https://torrentgalaxy.org


https://www.imdb.com/title/tt7456310/


Complete name
Anna.2019. 1080P.Webrip.X264-Obey[TGx]
Format : Matroska
Format version : Version 4
File size : 4.09 GiB
Duration : 1 h 59 min
Overall bit rate : 4 920 kb/s
Encoded date : UTC 2019-09-09 23:07:29

Video
ID : 2
Format : AVC
Format/Info : Advanced Video Codec
Format profile : [email protected]
Format settings : CABAC / 5 Ref Frames
Format settings, CABAC : Yes
Format settings, Reference frames : 5 frames
Codec ID : V_MPEG4/ISO/AVC
Duration : 1 h 59 min
Bit rate : 4 438 kb/s
Width : 1 916 pixels
Height : 800 pixels
Display aspect ratio : 2.40:1
Frame rate mode : Constant
Frame rate : 23.976 (24000/1001) FPS
Color space : YUV
Chroma subsampling : 4:2:0
Bit depth : 8 bits
Scan type : Progressive
Bits/(Pixel*Frame) : 0.121
Stream size : 3.69 GiB (90%)
Language : English
Default : Yes
Forced : No
Color range : Limited
Color primaries : BT.709
Transfer characteristics : BT.709
Matrix coefficients : BT.709

Audio
ID : 1
Format : AC-3
Format/Info : Audio Coding 3
Codec ID : A_AC3
Duration : 1 h 59 min
Bit rate mode : Constant
Bit rate : 384 kb/s
Channel(s) : 6 channels
Channel layout : L R C LFE Ls Rs
Sampling rate : 48.0 kHz
Frame rate : 31.250 FPS (1536 SPF)
Bit depth : 16 bits
Compression mode : Lossy
Stream size : 327 MiB (8%)
Language : English
Service kind : Complete Main
Default : Yes
Forced : No



















Files:

Anna.2019. 1080P.Webrip.X264-Obey.mkv
  • Anna.2019. 1080P.Webrip.X264-Obey.mkv (2.1 GB)

There are currently no comments. Feel free to leave one :)

Code:

  • udp://tracker.coppersurfer.tk:6969/announce
  • udp://tracker.leechers-paradise.org:6969/announce
  • udp://exodus.desync.com:6969
  • udp://tracker.internetwarriors.net:1337/announce
  • udp://open.stealth.si:80/announce
  • udp://explodie.org:6969/announce
  • udp://tracker.opentrackr.org:1337/announce
  • udp://tracker.tiny-vps.com:6969/announce
  • udp://open.demonii.si:1337/announce
  • udp://tracker.torrent.eu.org:451/announce
  • udp://tracker.pirateparty.gr:6969/announce
  • udp://ipv4.tracker.harry.lu:80/announce
  • udp://tracker.cyberia.is:6969/announce
  • udp://denis.stalker.upeer.me:6969/announce
  • udp://9.rarbg.to:2790/announce