Star Trek Beyond (2016) (1080p BluRay x265 HEVC 10bit AAC 7.1 Joy...

  • Category Movies
  • Type HEVC/x265
  • Language English
  • Total size 1.6 GB
  • Uploaded By UTRCorp
  • Downloads 299
  • Last checked 2 days ago
  • Date uploaded 6 days ago
  • Seeders 23
  • Leechers 4

Star Trek Beyond

ActionAdventureScience Fiction

The USS Enterprise crew explores the furthest reaches of uncharted space, where they encounter a mysterious new enemy who puts them and everything the Federation stands for to the test.

Infohash : EA44D83B87CF6F6C2F476B0881E98E3A184D9C36






Media Information

Code:

General
Format : Matroska
Format version : Version 4 / Version 2
File size : 1.64 GiB
Duration : 2 h 2 min
Overall bit rate : 1 920 kb/s
Movie name : Star Trek Beyond 2016 (1080p x265 10bit S76 Joy) [UTR]
Encoded date : UTC 2019-10-08 19:35:29
Writing application : mkvmerge v37.0.0 ('Leave It') 64-bit
Writing library : libebml v1.3.9 + libmatroska v1.5.2
Cover : Yes
Attachments : cover.jpg / cover.jpg
Writing frontend : StaxRip v1.6.0.1

Video
ID : 1
Format : HEVC
Format/Info : High Efficiency Video Coding
Format profile : Main [email protected]@Main
Codec ID : V_MPEGH/ISO/HEVC
Duration : 2 h 2 min
Bit rate : 1 501 kb/s
Width : 1 920 pixels
Height : 800 pixels
Display aspect ratio : 2.40:1
Frame rate mode : Constant
Frame rate : 23.976 (24000/1001) FPS
Color space : YUV
Chroma subsampling : 4:2:0
Bit depth : 10 bits
Bits/(Pixel*Frame) : 0.041
Stream size : 1.28 GiB (78%)
Writing library : x265 2.0+54-e5ca9b210223:[Windows][MSVC 1900][64 bit] 10bit
Encoding settings : wpp / ctu=64 / min-cu-size=8 / max-tu-size=32 / tu-intra-depth=1 / tu-inter-depth=1 / me=1 / subme=2 / merange=57 / no-rect / no-amp / max-merge=2 / temporal-mvp / early-skip / rskip / rdpenalty=0 / no-tskip / no-tskip-fast / strong-intra-smoothing / no-lossless / no-cu-lossless / no-constrained-intra / fast-intra / open-gop / no-temporal-layers / interlace=0 / keyint=250 / min-keyint=23 / scenecut=40 / rc-lookahead=20 / lookahead-slices=5 / bframes=4 / bframe-bias=0 / b-adapt=2 / ref=3 / limit-refs=3 / no-limit-modes / weightp / no-weightb / aq-mode=3 / qg-size=32 / aq-strength=1.00 / cbqpoffs=0 / crqpoffs=0 / rd=3 / psy-rd=0.00 / rdoq-level=0 / psy-rdoq=0.00 / log2-max-poc-lsb=8 / no-rd-refine / signhide / deblock=0:0 / sao / no-sao-non-deblock / b-pyramid / cutree / no-intra-refresh / rc=2 / pass / bitrate=1500 / qcomp=0.60 / qpmin=0 / qpmax=69 / qpstep=4 / cplxblur=20.0 / qblur=1.0 / ipratio=1.40 / pbratio=1.30
Language : English
Default : Yes
Forced : No

Audio
ID : 2
Format : AAC
Format/Info : Advanced Audio Codec
Format profile : LC
Codec ID : A_AAC
Duration : 2 h 2 min
Bit rate : 353 kb/s
Channel(s) : 8 channels
Channel positions : Front: L C R, Side: L R, Back: L R, LFE
Sampling rate : 48.0 kHz
Frame rate : 46.875 FPS (1024 spf)
Compression mode : Lossy
Delay relative to video : 9 ms
Stream size : 307 MiB (18%)
Language : English
Default : No
Forced : No

Subtitle #1
ID : 3
Format : PGS
Muxing mode : zlib
Codec ID : S_HDMV/PGS
Codec ID/Info : Picture based subtitle format used on BDs/HD-DVDs
Duration : 1 h 51 min
Bit rate : 31.8 kb/s
Count of elements : 2532
Stream size : 25.4 MiB (2%)
Language : English
Default : No
Forced : No

Subtitle #2
ID : 4
Format : UTF-8
Codec ID : S_TEXT/UTF8
Codec ID/Info : UTF-8 Plain Text
Duration : 1 h 51 min
Bit rate : 51 b/s
Count of elements : 1300
Stream size : 42.5 KiB (0%)
Language : English
Default : No
Forced : No

Subtitle #3
ID : 5
Format : VobSub
Muxing mode : zlib
Codec ID : S_VOBSUB
Codec ID/Info : Picture based subtitle format used on DVDs
Duration : 1 h 51 min
Bit rate : 9 064 b/s
Count of elements : 1266
Stream size : 7.25 MiB (0%)
Language : English
Default : No
Forced : No

Subtitle #4
ID : 6
Format : VobSub
Muxing mode : zlib
Codec ID : S_VOBSUB
Codec ID/Info : Picture based subtitle format used on DVDs
Duration : 2 h 0 min
Bit rate : 6 977 b/s
Count of elements : 926
Stream size : 6.04 MiB (0%)
Language : Danish
Default : No
Forced : No

Subtitle #5
ID : 7
Format : VobSub
Muxing mode : zlib
Codec ID : S_VOBSUB
Codec ID/Info : Picture based subtitle format used on DVDs
Duration : 2 h 0 min
Bit rate : 9 081 b/s
Count of elements : 1300
Stream size : 7.86 MiB (0%)
Language : German
Default : No
Forced : No

Subtitle #6
ID : 8
Format : VobSub
Muxing mode : zlib
Codec ID : S_VOBSUB
Codec ID/Info : Picture based subtitle format used on DVDs
Duration : 2 h 0 min
Bit rate : 8 146 b/s
Count of elements : 1226
Stream size : 7.05 MiB (0%)
Language : Spanish
Default : No
Forced : No

Subtitle #7
ID : 9
Format : VobSub
Muxing mode : zlib
Codec ID : S_VOBSUB
Codec ID/Info : Picture based subtitle format used on DVDs
Duration : 2 h 0 min
Bit rate : 6 854 b/s
Count of elements : 1210
Stream size : 5.93 MiB (0%)
Language : French
Default : No
Forced : No

Subtitle #8
ID : 10
Format : VobSub
Muxing mode : zlib
Codec ID : S_VOBSUB
Codec ID/Info : Picture based subtitle format used on DVDs
Duration : 2 h 0 min
Bit rate : 7 928 b/s
Count of elements : 1172
Stream size : 6.86 MiB (0%)
Language : Italian
Default : No
Forced : No

Subtitle #9
ID : 11
Format : VobSub
Muxing mode : zlib
Codec ID : S_VOBSUB
Codec ID/Info : Picture based subtitle format used on DVDs
Duration : 2 h 0 min
Bit rate : 7 318 b/s
Count of elements : 1110
Stream size : 6.33 MiB (0%)
Language : Dutch
Default : No
Forced : No

Subtitle #10
ID : 12
Format : VobSub
Muxing mode : zlib
Codec ID : S_VOBSUB
Codec ID/Info : Picture based subtitle format used on DVDs
Duration : 2 h 0 min
Bit rate : 7 525 b/s
Count of elements : 1175
Stream size : 6.51 MiB (0%)
Language : Norwegian Bokmal
Default : No
Forced : No

Subtitle #11
ID : 13
Format : VobSub
Muxing mode : zlib
Codec ID : S_VOBSUB
Codec ID/Info : Picture based subtitle format used on DVDs
Duration : 2 h 0 min
Bit rate : 7 696 b/s
Count of elements : 1297
Stream size : 6.66 MiB (0%)
Language : Finnish
Default : No
Forced : No

Subtitle #12
ID : 14
Format : VobSub
Muxing mode : zlib
Codec ID : S_VOBSUB
Codec ID/Info : Picture based subtitle format used on DVDs
Duration : 2 h 0 min
Bit rate : 7 575 b/s
Count of elements : 1176
Stream size : 6.55 MiB (0%)
Language : Swedish
Default : No
Forced : No

Subtitle #13
ID : 15
Format : VobSub
Muxing mode : zlib
Codec ID : S_VOBSUB
Codec ID/Info : Picture based subtitle format used on DVDs
Duration : 1 h 51 min
Bit rate : 10.6 kb/s
Count of elements : 1527
Stream size : 8.45 MiB (1%)
Title : Commentary
Language : English
Default : No
Forced : No

Subtitle #14
ID : 16
Format : UTF-8
Codec ID : S_TEXT/UTF8
Codec ID/Info : UTF-8 Plain Text
Duration : 1 h 57 min
Bit rate : 78 b/s
Count of elements : 1247
Stream size : 67.1 KiB (0%)
Language : Arabic
Default : No
Forced : No

Subtitle #15
ID : 17
Format : UTF-8
Codec ID : S_TEXT/UTF8
Codec ID/Info : UTF-8 Plain Text
Duration : 1 h 54 min
Bit rate : 41 b/s
Count of elements : 1317
Stream size : 35.0 KiB (0%)
Language : Chinese
Default : No
Forced : No

Subtitle #16
ID : 18
Format : UTF-8
Codec ID : S_TEXT/UTF8
Codec ID/Info : UTF-8 Plain Text
Duration : 1 h 54 min
Bit rate : 87 b/s
Count of elements : 1262
Stream size : 73.5 KiB (0%)
Language : Persian
Default : No
Forced : No

Subtitle #17
ID : 19
Format : UTF-8
Codec ID : S_TEXT/UTF8
Codec ID/Info : UTF-8 Plain Text
Duration : 1 h 54 min
Bit rate : 47 b/s
Count of elements : 1298
Stream size : 39.9 KiB (0%)
Language : Finnish
Default : No
Forced : No

Subtitle #18
ID : 20
Format : UTF-8
Codec ID : S_TEXT/UTF8
Codec ID/Info : UTF-8 Plain Text
Duration : 2 h 0 min
Bit rate : 52 b/s
Count of elements : 1300
Stream size : 46.1 KiB (0%)
Language : German
Default : No
Forced : No

Subtitle #19
ID : 21
Format : UTF-8
Codec ID : S_TEXT/UTF8
Codec ID/Info : UTF-8 Plain Text
Duration : 1 h 53 min
Bit rate : 98 b/s
Count of elements : 1230
Stream size : 81.8 KiB (0%)
Language : Greek
Default : No
Forced : No

Subtitle #20
ID : 22
Format : UTF-8
Codec ID : S_TEXT/UTF8
Codec ID/Info : UTF-8 Plain Text
Duration : 1 h 52 min
Bit rate : 54 b/s
Count of elements : 1000
Stream size : 45.1 KiB (0%)
Language : Norwegian
Default : No
Forced : No

Subtitle #21
ID : 23
Format : UTF-8
Codec ID : S_TEXT/UTF8
Codec ID/Info : UTF-8 Plain Text
Duration : 1 h 54 min
Bit rate : 48 b/s
Count of elements : 1177
Stream size : 40.5 KiB (0%)
Language : Swedish
Default : No
Forced : No

Subtitle #22
ID : 24
Format : UTF-8
Codec ID : S_TEXT/UTF8
Codec ID/Info : UTF-8 Plain Text
Duration : 1 h 54 min
Bit rate : 112 b/s
Count of elements : 1178
Stream size : 94.3 KiB (0%)
Language : Thai
Default : No
Forced : No

Subtitle #23
ID : 25
Format : UTF-8
Codec ID : S_TEXT/UTF8
Codec ID/Info : UTF-8 Plain Text
Duration : 1 h 52 min
Bit rate : 56 b/s
Count of elements : 1140
Stream size : 46.2 KiB (0%)
Language : Turkish
Default : No
Forced : No

Menu #1
00:00:00.000 : en:Chapter 1
00:08:26.547 : en:Chapter 2
00:16:11.637 : en:Chapter 3
00:32:38.289 : en:Chapter 4
00:42:16.367 : en:Chapter 5
00:52:22.264 : en:Chapter 6
00:59:50.628 : en:Chapter 7
01:12:05.529 : en:Chapter 8
01:22:34.449 : en:Chapter 9
01:33:00.950 : en:Chapter 10
01:40:33.318 : en:Chapter 11
01:47:38.994 : en:Chapter 12
01:52:32.662 : en:Chapter 13
01:55:41.351 : en:Chapter 14

Menu #2
00:00:00.000 : en:00:00:00.000
00:08:26.548 : en:00:08:26.548
00:16:11.637 : en:00:16:11.637
00:32:38.290 : en:00:32:38.290
00:42:16.367 : en:00:42:16.367
00:52:22.264 : en:00:52:22.264
00:59:50.629 : en:00:59:50.629
01:12:05.530 : en:01:12:05.530
01:22:34.449 : en:01:22:34.449
01:33:00.950 : en:01:33:00.950
01:40:33.319 : en:01:40:33.319
01:47:38.994 : en:01:47:38.994
01:52:32.663 : en:01:52:32.663
01:55:41.351 : en:01:55:41.351



Source Information

Code:

Release: Star.Trek.Beyond.2016.2160p.BluRay.x265.10bit.SDR.DTS-HD.MA.TrueHD.7.1.Atmos-SWTYBLZ.mkv (36.55 GBs)



Code:


Note From UTR
Whilst we are happy for our releases to be re-posted on a platform we aren't on, please do so in an 'as-is' format. We ask that you do not create a new torrent, include all descriptions you see above including the UTR logo, tags, notes and screenshots. If you'd like to become a permanent poster on a website we don't post to, feel free to get in contact with a UTR member.
If possible please donate: BTC 1QA5fum5AyXvWzdVCkQzUNvw3Ef15fHRaR





Files:

  • Star Trek Beyond 2016 (1080p x265 10bit S76 Joy).mkv (1.6 GB)

There are currently no comments. Feel free to leave one :)

Code:

  • udp://tracker.coppersurfer.tk:6969/announce
  • udp://9.rarbg.com:2710/announce
  • udp://9.rarbg.to:2710/announce
  • udp://tracker.torrent.eu.org:451/announce
  • udp://exodus.desync.com:6969/announce
  • udp://tracker.tiny-vps.com:6969/announce
  • udp://open.demonii.si:1337/announce
  • udp://tracker.opentrackr.org:1337/announce
  • udp://tracker.internetwarriors.net:1337/announce