Lion.King.2019.DVDRip.XviD.AC3.LLG

  • Category Movies
  • Type Divx/Xvid
  • Language English
  • Total size 1.3 GB
  • Uploaded By LifeLongg
  • Downloads 144
  • Last checked 1 day ago
  • Date uploaded 6 days ago
  • Seeders 3
  • Leechers 2

The Lion King

AdventureAnimationFamilyDramaAction

Simba idolises his father, King Mufasa, and takes to heart his own royal destiny. But not everyone in the kingdom celebrates the new cub's arrival. Scar, Mufasa's brother—and former heir to the throne—has plans of his own. The battle for Pride Rock is ravaged with betrayal, tragedy and drama, ultimately resulting in Simba's exile. With help from a curious pair of newfound friends, Simba will have to figure out how to grow up and take back what is rightfully his.

Infohash : 09D7BC7AF7082B688582E03B2F957C7656CB81BA

Quote:





******************************Thumbnail:**********************




******************************Screenshots:********************

Screenshot 1

Screenshot 2

Screenshot 3

Screenshot 4

Screenshot 5

Screenshot 6

Screenshot 7

Screenshot 8

Screenshot 9

Screenshot 0

***************************************************************
General
Lion.King.2019.DVDRip.XviD.AC3.LLG.mp4
Format : MPEG-4
Format profile : Base Media
Codec ID : isom (isom/iso2/avc1/mp41)
File size : 1.31 GiB
Duration : 1 h 58 min
Overall bit rate mode : Variable
Overall bit rate : 1 590 kb/s

Video
ID : 1
Format : AVC
Format/Info : Advanced Video Codec
Format profile : [email protected]
Format settings : CABAC / 1 Ref Frames
Format settings, CABAC : Yes
Format settings, Reference frames : 1 frame
Codec ID : avc1
Codec ID/Info : Advanced Video Coding
Duration : 1 h 58 min
Bit rate mode : Variable
Bit rate : 1 202 kb/s
Maximum bit rate : 3 600 kb/s
Width : 720 pixels
Height : 400 pixels
Display aspect ratio : 16:9
Frame rate mode : Constant
Frame rate : 23.976 (23976/1000) FPS
Color space : YUV
Chroma subsampling : 4:2:0
Bit depth : 8 bits
Scan type : Progressive
Bits/(Pixel*Frame) : 0.174
Stream size : 1 017 MiB (76%)

Audio
ID : 2
Format : AC-3
Format/Info : Audio Coding 3
Commercial name : Dolby Digital
Codec ID : ac-3
Duration : 1 h 58 min
Bit rate mode : Constant
Bit rate : 384 kb/s
Channel(s) : 6 channels
Channel layout : L R C LFE Ls Rs
Sampling rate : 48.0 kHz
Frame rate : 31.250 FPS (1536 SPF)
Bit depth : 16 bits
Compression mode : Lossy
Stream size : 325 MiB (24%)
Title : Surround
Language : English
Service kind : Complete Main
Default : Yes
Alternate group : 1


***************************************************************



Files:

Lion.King.2019.DVDRip.XviD.AC3.LLG
  • Sample.ts (21.5 MB)
  • Lion.King.2019.DVDRip.XviD.AC3.LLG.mp4 (1.3 GB)

There are currently no comments. Feel free to leave one :)

Code:

  • udp://tracker.openbittorrent.com:80/announce
  • udp://tracker.opentrackr.org:1337/announce
  • udp://exodus.desync.com:6969/announce
  • udp://tracker.coppersurfer.tk:6969/announce
  • udp://tracker.iamhansen.xyz:2000/announce
  • udp://tracker.opentrackr.org:1337/announce
  • udp://open.demonii.si:1337/announce
  • udp://tracker.pirateparty.gr:6969/announce