Scary Stories to Tell in the Dark.2019.READNFO.1080p.WEB-DL.H264....

  • Category Movies
  • Type HD
  • Language English
  • Total size 3.3 GB
  • Uploaded By LifeLongg
  • Downloads 172
  • Last checked 1 day ago
  • Date uploaded 6 days ago
  • Seeders 2
  • Leechers 1

Scary Stories to Tell in the Dark

HorrorFantasy

The shadow of the Bellows family has loomed large in the small town of Mill Valley for generations. It's in a mansion that young Sarah Bellows turns her tortured life and horrible secrets into a series of scary stories. These terrifying tales soon have a way of becoming all too real for a group of unsuspecting teens who stumble upon Sarah's spooky home.

Infohash : 5BA37329EAC9D747393308C9015F0E1917DBE340

Quote:





******************************Thumbnail:**********************




******************************Screenshots:********************

Screenshot 1

Screenshot 2

Screenshot 3

Screenshot 4

Screenshot 5

Screenshot 6

Screenshot 7

Screenshot 8

Screenshot 9

Screenshot 0

***************************************************************
General
Scary Stories to Tell in the Dark.2019.READNFO.1080p.WEB-DL.H264.AC3.LLG.mp4
Format : MPEG-4
Format profile : Base Media
Codec ID : isom (isom/iso2/avc1/mp41)
File size : 3.19 GiB
Duration : 1 h 43 min
Overall bit rate mode : Variable

Video
ID : 1
Format : AVC
Format/Info : Advanced Video Codec
Format profile : [email protected]
Format settings : CABAC / 1 Ref Frames
Format settings, CABAC : Yes
Format settings, Reference frames : 1 frame
Codec ID : avc1
Codec ID/Info : Advanced Video Coding
Duration : 1 h 43 min
Bit rate mode : Variable
Bit rate : 4 045 kb/s
Maximum bit rate : 12.0 Mb/s
Width : 1 920 pixels
Height : 804 pixels
Display aspect ratio : 2.40:1
Frame rate mode : Constant
Frame rate : 25.000 FPS
Color space : YUV
Chroma subsampling : 4:2:0
Bit depth : 8 bits
Scan type : Progressive
Bits/(Pixel*Frame) : 0.105
Stream size : 2.92 GiB (91%)
Language : English

Audio
ID : 2
Format : AC-3
Format/Info : Audio Coding 3
Commercial name : Dolby Digital
Codec ID : ac-3
Duration : 1 h 43 min
Bit rate mode : Constant
Bit rate : 384 kb/s
Channel(s) : 2 channels
Channel layout : L R
Sampling rate : 48.0 kHz
Frame rate : 31.250 FPS (1536 SPF)
Bit depth : 16 bits
Compression mode : Lossy
Stream size : 283 MiB (9%)
Language : English
Service kind : Complete Main
Default : Yes
Alternate group : 1

Menu #1
ID : 3
Codec ID : text
Duration : 1 h 43 min
Language : English


***************************************************************



Files:

Scary Stories to Tell in the Dark.2019.READNFO.1080p.WEB-DL.H264.AC3.LLG
  • Sample.ts (85.3 MB)
  • Scary Stories to Tell in the Dark.2019.READNFO.1080p.WEB-DL.H264.AC3.LLG.mp4 (3.2 GB)

There are currently no comments. Feel free to leave one :)

Code:

  • udp://tracker.openbittorrent.com:80/announce
  • udp://tracker.opentrackr.org:1337/announce
  • udp://exodus.desync.com:6969/announce
  • udp://tracker.coppersurfer.tk:6969/announce
  • udp://tracker.iamhansen.xyz:2000/announce
  • udp://tracker.opentrackr.org:1337/announce
  • udp://open.demonii.si:1337/announce
  • udp://tracker.pirateparty.gr:6969/announce