The.Lion.King.2019.DVDRip.XviD.B4ND1T69

  • Category Movies
  • Type Divx/Xvid
  • Language English
  • Total size 918.4 MB
  • Uploaded By B4ND1T69
  • Downloads 308
  • Last checked 1 day ago
  • Date uploaded 5 days ago
  • Seeders 51
  • Leechers 8

The Lion King

AdventureAnimationFamilyDramaAction

Simba idolises his father, King Mufasa, and takes to heart his own royal destiny. But not everyone in the kingdom celebrates the new cub's arrival. Scar, Mufasa's brother—and former heir to the throne—has plans of his own. The battle for Pride Rock is ravaged with betrayal, tragedy and drama, ultimately resulting in Simba's exile. With help from a curious pair of newfound friends, Simba will have to figure out how to grow up and take back what is rightfully his.

Infohash : C80769B54A6E47943E824F99C6D5BBF6AF62D8BE

The.Lion.King.2019.DVDRip.XviD.B4ND1T69



Director: Jon Favreau
Writers: Jeff Nathanson (screenplay by), Brenda Chapman (story)
Stars: Donald Glover, Beyoncé, Seth Rogen

Plot/Story:
After the murder of his father, a young lion prince flees his kingdom only to learn the true meaning of responsibility and bravery.

General
Complete name : The.Lion.King.2019.DVDRip.XviD.B4ND1T69.avi
Format : AVI
Format/Info : Audio Video Interleave
File size : 918 MiB
Duration : 1 h 58 min
Overall bit rate : 1 086 kb/s
Subtitles : Yes...Included(HI)

Video
ID : 0
Format : MPEG-4 Visual
Format profile : Advanced [email protected]
Format settings, BVOP : 2
Format settings, QPel : No
Format settings, GMC : No warppoints
Format settings, Matrix : Default (H.263)
Codec ID : XVID
Codec ID/Hint : XviD
Duration : 1 h 58 min
Bit rate : 945 kb/s
Width : 688 pixels
Height : 384 pixels
Display aspect ratio : 16:9
Frame rate : 23.976 (24000/1001) FPS
Color space : YUV
Chroma subsampling : 4:2:0
Bit depth : 8 bits
Scan type : Progressive
Compression mode : Lossy
Bits/(Pixel*Frame) : 0.149
Stream size : 799 MiB (87%)
Writing library : XviD 64

Audio
ID : 1
Format : MPEG Audio
Format version : Version 1
Format profile : Layer 3
Codec ID : 55
Codec ID/Hint : MP3
Duration : 1 h 58 min
Bit rate mode : Constant
Bit rate : 128 kb/s
Channel(s) : 2 channels
Sampling rate : 48.0 kHz
Compression mode : Lossy
Stream size : 108 MiB (12%)
Alignment : Aligned on interleaves
Interleave, duration : 24 ms (0.58 video frame)

Screenshots:

https://i.imgur.com/5PQWvgE.png
https://i.imgur.com/KkxxyRK.png
https://i.imgur.com/QhIED75.png
https://i.imgur.com/GAbvltj.png
https://i.imgur.com/m61JISG.png
https://i.imgur.com/TR2uIUy.png
https://i.imgur.com/HPPP8X9.png
https://i.imgur.com/eAH0xuv.png









Please Seed For As Long As Possible
Or At Least 1:1 Ratio...Thanks
Enjoy Peeps

Files:

The.Lion.King.2019.DVDRip.XviD.B4ND1T69
  • 1337x text file.txt (0.1 KB)
  • Downloaded from katcr.co.txt (0.1 KB)
  • The.Lion.King.2019.DVDRip.XviD.B4ND1T69.srt (114.9 KB)
  • The.Lion.King.2019.DVDRip.XviD.B4ND1T69.avi (918.3 MB)

There are currently no comments. Feel free to leave one :)

Code:

  • udp://tracker.coppersurfer.tk:6969/announce
  • udp://tracker.pirateparty.gr:6969/announce
  • udp://tracker.opentrackr.org:1337/announce
  • udp://tracker.internetwarriors.net:1337/announce
  • udp://tracker.tiny-vps.com:6969/announce
  • udp://open.demonii.si:1337/announce
  • udp://tracker.torrent.eu.org:451/announce
  • udp://tracker.leechers-paradise.org:6969/announce