Rogue 2017 Hindi Dubbed 1080p WEB-DL x264 AAC { TaRa }.mkv

  • Category Movies
  • Type Bollywood
  • Language English
  • Total size 2.2 GB
  • Uploaded By SkTara
  • Downloads 813
  • Last checked 5 days ago
  • Date uploaded 5 days ago
  • Seeders 33
  • Leechers 56

Rogue One: A Star Wars Story

ActionAdventureFantasyScience FictionThrillerWar

A rogue band of resistance fighters unite for a mission to steal the Death Star plans and bring a new hope to the galaxy.

Infohash : 55E3775077DDBBD32DAE2A02C3806C87E2D565AA


Rogue 2017 Hindi Dubbed 1080p WEB-DL x264 AAC { TaRa }.mkv


===================================================================
General
Complete name : Rogue 2017 Hindi Dubbed 1080p WEB-DL x264 AAC { TaRa }.mkv
Format : Matroska
Format version : Version 4
File size : 2.23 GiB
Duration : 1 h 43 min
Overall bit rate : 3 101 kb/s
===================================================================
Video
ID : 1
Format : AVC
Format/Info : Advanced Video Codec
Format profile : [email protected]
Format settings : CABAC / 4 Ref Frames
Format settings, CABAC : Yes
Format settings, Reference : 4 frames
Codec ID : V_MPEG4/ISO/AVC
Duration : 1 h 43 min
Bit rate : 3 000 kb/s
Width : 1 920 pixels
Height : 1 080 pixels
Display aspect ratio : 16:9
Frame rate mode : Constant
Frame rate : 25.000 FPS
Color space : YUV
Chroma subsampling : 4:2:0
Bit depth : 8 bits
Scan type : Progressive
Bits/(Pixel*Frame) : 0.058
Stream size : 2.16 GiB (97%)
Title : .....::::: TaRa :::::.....
Language : Hindi
Default : Yes
Forced : No
===================================================================
Audio
ID : 2
Format : AAC LC
Format/Info : Advanced Audio Codec Low Complexity
Codec ID : A_AAC-2
Duration : 1 h 43 min
Bit rate : 96.0 kb/s
Channel(s) : 2 channels
Channel layout : L R
Sampling rate : 48.0 kHz
Frame rate : 46.875 FPS (1024 SPF)
Compression mode : Lossy
Stream size : 70.7 MiB (3%)
Title : .....::::: TaRa :::::.....
Language : Hindi
Default : Yes
Forced : No
===================================================================






























Files:

Rogue 2017 Hindi Dubbed 1080p WEB-DL x264 AAC { TaRa }.mkv
  • Torrent TaRa Digital Team.txt (0.7 KB)
  • Torrent TaRa Digital Team PC Info.nfo (6.5 KB)
  • images (1).jpg (34.7 KB)
  • Rogue-Movie.jpg (52.4 KB)
  • Rogue 2017 Hindi Dubbed 1080p WEB-DL x264 AAC { TaRa }.mkv (2.2 GB)

Comments

Code:

  • udp://tracker.coppersurfer.tk:6969/announce
  • udp://tracker.leechers-paradise.org:6969/announce
  • udp://bt.xxx-tracker.com:2710/announce
  • udp://tracker.internetwarriors.net:1337/announce
  • udp://tracker.openbittorrent.com:80/announce
  • udp://explodie.org:6969/announce
  • udp://tracker.opentrackr.org:1337/announce
  • udp://tracker.tiny-vps.com:6969/announce
  • udp://open.demonii.si:1337/announce
  • udp://tracker.torrent.eu.org:451/announce
  • udp://tracker.pirateparty.gr:6969/announce
  • udp://ipv4.tracker.harry.lu:80/announce
  • udp://tracker.cyberia.is:6969/announce
  • udp://9.rarbg.to:2750/announce
  • udp://denis.stalker.upeer.me:6969/announce