Joker.2019.HC.HDCam.XviD.B4ND1T69

  • Category Movies
  • Type Divx/Xvid
  • Language English
  • Total size 1.2 GB
  • Uploaded By B4ND1T69
  • Downloads 84379
  • Last checked 1 month ago
  • Date uploaded 1 month ago
  • Seeders 1752
  • Leechers 804

Joker

CrimeThrillerDrama

During the 1980s, a failed stand-up comedian is driven insane and turns to a life of crime and chaos in Gotham City while becoming an infamous psychopathic crime figure.

Infohash : 6E028832ECEA87BFA7AD3F6E69F7F09F9C4A2C5A

Joker.2019.HC.HDCam.XviD.B4ND1T69



Director: Todd Phillips
Writers: Todd Phillips, Scott Silver
Stars: Joaquin Phoenix, Robert De Niro, Zazie Beetz

Plot/Story:
In Gotham City, mentally-troubled comedian Arthur Fleck is disregarded and mistreated by society. He then embarks on a downward spiral of revolution and bloody crime. This path brings him face-to-face with his alter-ego: "The Joker".

Notes:
Clean print, NO ads, text or floaty crap.
Used 2 sources to make this, rotated the images, cropped off any rough edges, gave it a clean to remove noise and flicker, resized it and resynced to nice clean audio. Samples included(3)...Enjoy.

General
Complete name               : Joker.2019.HC.HDCam.XviD.B4ND1T69.avi
Format                      : AVI
Format/Info                 : Audio Video Interleave
Format profile              : OpenDML
File size                   : 1.13 GiB
Duration                    : 1 h 55 min
Overall bit rate            : 1 396 kb/s
Sample                      : Yes...Included(3)

Video
ID                          : 0
Format                      : MPEG-4 Visual
Format profile              : Advanced [email protected]
Format settings, BVOP       : 2
Format settings, QPel       : No
Format settings, GMC        : No warppoints
Format settings, Matrix     : Default (H.263)
Codec ID                    : XVID
Codec ID/Hint               : XviD
Duration                    : 1 h 55 min
Bit rate                    : 1 250 kb/s
Width                       : 720 pixels
Height                      : 352 pixels
Display aspect ratio        : 2.045
Frame rate                  : 30.000 FPS
Color space                 : YUV
Chroma subsampling          : 4:2:0
Bit depth                   : 8 bits
Scan type                   : Progressive
Compression mode            : Lossy
Bits/(Pixel*Frame)          : 0.164
Stream size                 : 1.01 GiB (90%)
Writing library             : XviD 64

Audio
ID                          : 1
Format                      : MPEG Audio
Format version              : Version 1
Format profile              : Layer 3
Mode                        : Joint stereo
Codec ID                    : 55
Codec ID/Hint               : MP3
Duration                    : 1 h 55 min
Bit rate mode               : Constant
Bit rate                    : 128 kb/s
Channel(s)                  : 2 channels
Sampling rate               : 48.0 kHz
Compression mode            : Lossy
Stream size                 : 106 MiB (9%)
Alignment                   : Aligned on interleaves
Interleave, duration        : 24  ms (0.72 video frame)

Screenshots:

https://i.imgur.com/ynZvYiu.png
https://i.imgur.com/ZLEII2t.png
https://i.imgur.com/p3yy8FY.png
https://i.imgur.com/xfE8KKg.png
https://i.imgur.com/O9hUu3F.png
https://i.imgur.com/vnmaqSI.png
https://i.imgur.com/BJtcEZW.png
https://i.imgur.com/DbkxSuK.png









Please Seed For As Long As Possible
Or At Least 1:1 Ratio...Thanks
Enjoy Peeps


Files:

Joker.2019.HC.HDCam.XviD.B4ND1T69
  • 1337x text file.txt (0.1 KB)
  • Downloaded from katcr.co.txt (0.1 KB)
  • Sample.3.avi (10.2 MB)
  • Sample.2.avi (13.0 MB)
  • Sample.1.avi (17.3 MB)
  • Joker.2019.HC.HDCam.XviD.B4ND1T69.avi (1.1 GB)

Comments

Code:

  • udp://tracker.coppersurfer.tk:6969/announce
  • udp://tracker.pirateparty.gr:6969/announce
  • udp://tracker.opentrackr.org:1337/announce
  • udp://tracker.internetwarriors.net:1337/announce
  • udp://tracker.tiny-vps.com:6969/announce
  • udp://open.demonii.si:1337/announce
  • udp://tracker.torrent.eu.org:451/announce
  • udp://tracker.leechers-paradise.org:6969/announce