Cinderella (1950) (1080p BDRip x265 10bit EAC3 5.1 - Goki)

  • Category Movies
  • Type HEVC/x265
  • Language English
  • Total size 2.0 GB
  • Uploaded By Goki
  • Downloads 234
  • Last checked 3 days ago
  • Date uploaded 1 week ago
  • Seeders 13
  • Leechers 4

Cinderella

AnimationFantasyMusicalRomanceFamily

When Cinderella's cruel stepmother prevents her from attending the Royal Ball, she gets some unexpected help from the lovable mice Gus and Jaq, and from her Fairy Godmother.

Infohash : E1744104FB3914F7CEB8837EE535700BAE8378D5




Cinderella (1950) IMDB










Media Information



Unique ID : 160988922812461176023606548370421683836 (0x791D56B61617B9FA19A03211E30F967C)
Complete name : Cinderella (1950) (1080p BDRip x265 10bit EAC3 5.1 - Goki).mkv
Format : Matroska
Format version : Version 4
File size : 1.99 GiB
Duration : 1 h 14 min
Overall bit rate : 3 816 kb/s
Movie name : Cinderella (1950) (1080p BDRip x265 10bit EAC3 5.1 - Goki).mkv
Encoded date : UTC 2020-01-12 01:48:59
Writing application : mkvmerge v28.2.0 ('The Awakening') 64-bit
Writing library : libebml v1.3.6 + libmatroska v1.4.9

Video
ID : 1
Format : HEVC
Format/Info : High Efficiency Video Coding
Format profile : Main [email protected]@Main
Codec ID : V_MPEGH/ISO/HEVC
Duration : 1 h 14 min
Bit rate : 3 267 kb/s
Width : 1 920 pixels
Height : 1 080 pixels
Display aspect ratio : 16:9
Frame rate mode : Constant
Frame rate : 23.976 (24000/1001) FPS
Color space : YUV
Chroma subsampling : 4:2:0
Bit depth : 10 bits
Bits/(Pixel*Frame) : 0.066
Stream size : 1.70 GiB (86%)
Writing library : x265 2.9+8-27d8424c799d:[Windows][MSVC 1915][64 bit] 10bit
Encoding settings : cpuid=1111039 / frame-threads=2 / numa-pools=6 / wpp / no-pmode / no-pme / no-psnr / no-ssim / log-level=2 / input-csp=1 / input-res=1920x1080 / interlace=0 / total-frames=0 / level-idc=0 / high-tier=1 / uhd-bd=0 / ref=4 / no-allow-non-conformance / no-repeat-headers / annexb / no-aud / no-hrd / info / hash=0 / no-temporal-layers / open-gop / min-keyint=23 / keyint=250 / gop-lookahead=0 / bframes=8 / b-adapt=2 / b-pyramid / bframe-bias=0 / rc-lookahead=100 / lookahead-slices=4 / scenecut=40 / radl=0 / no-intra-refresh / ctu=64 / min-cu-size=8 / no-rect / no-amp / max-tu-size=32 / tu-inter-depth=2 / tu-intra-depth=2 / limit-tu=4 / rdoq-level=2 / dynamic-rd=0.00 / no-ssim-rd / signhide / no-tskip / nr-intra=0 / nr-inter=0 / no-constrained-intra / no-strong-intra-smoothing / max-merge=3 / limit-refs=2 / limit-modes / me=3 / subme=5 / merange=57 / temporal-mvp / weightp / weightb / no-analyze-src-pics / deblock=0:0 / sao / no-sao-non-deblock / rd=6 / no-early-skip / rskip / no-fast-intra / no-tskip-fast / no-cu-lossless / b-intra / no-splitrd-skip / rdpenalty=0 / psy-rd=1.30 / psy-rdoq=2.00 / no-rd-refine / no-lossless / cbqpoffs=0 / crqpoffs=0 / rc=crf / crf=18.0 / qcomp=0.60 / qpstep=4 / stats-write=0 / stats-read=0 / ipratio=1.40 / pbratio=1.30 / aq-mode=2 / aq-strength=1.10 / cutree / zone-count=0 / no-strict-cbr / qg-size=32 / no-rc-grain / qpmax=69 / qpmin=0 / no-const-vbv / sar=1 / overscan=0 / videoformat=5 / range=0 / colorprim=2 / transfer=2 / colormatrix=2 / chromaloc=0 / display-window=0 / max-cll=0,0 / min-luma=0 / max-luma=1023 / log2-max-poc-lsb=8 / vui-timing-info / vui-hrd-info / slices=1 / no-opt-qp-pps / no-opt-ref-list-length-pps / no-multi-pass-opt-rps / scenecut-bias=0.05 / no-opt-cu-delta-qp / no-aq-motion / no-hdr / no-hdr-opt / no-dhdr10-opt / no-idr-recovery-sei / analysis-reuse-level=5 / scale-factor=0 / refine-intra=0 / refine-inter=0 / refine-mv=0 / no-limit-sao / ctu-info=0 / no-lowpass-dct / refine-mv-type=0 / copy-pic=1 / max-ausize-factor=1.0 / no-dynamic-refine / no-single-sei
Language : English
Default : Yes
Forced : No

Audio
ID : 2
Format : E-AC-3
Format/Info : Enhanced AC-3
Commercial name : Dolby Digital Plus
Codec ID : A_EAC3
Duration : 1 h 14 min
Bit rate mode : Constant
Bit rate : 448 kb/s
Channel(s) : 6 channels
Channel layout : L R C LFE Ls Rs
Sampling rate : 48.0 kHz
Frame rate : 31.250 FPS (1536 SPF)
Compression mode : Lossy
Stream size : 239 MiB (12%)
Language : English
Service kind : Complete Main
Default : Yes
Forced : No

Text #1
ID : 3
Format : PGS
Codec ID : S_HDMV/PGS
Codec ID/Info : Picture based subtitle format used on BDs/HD-DVDs
Duration : 1 h 13 min
Bit rate : 32.0 kb/s
Count of elements : 1950
Stream size : 16.9 MiB (1%)
Language : English
Default : No
Forced : No

Text #2
ID : 4
Format : PGS
Codec ID : S_HDMV/PGS
Codec ID/Info : Picture based subtitle format used on BDs/HD-DVDs
Duration : 1 h 13 min
Bit rate : 37.6 kb/s
Count of elements : 2230
Stream size : 19.9 MiB (1%)
Title : SDH
Language : English
Default : No
Forced : No

Text #3
ID : 5
Format : PGS
Codec ID : S_HDMV/PGS
Codec ID/Info : Picture based subtitle format used on BDs/HD-DVDs
Duration : 1 h 14 min
Bit rate : 30.6 kb/s
Count of elements : 1848
Stream size : 16.2 MiB (1%)
Language : Italian
Default : No
Forced : No

Menu
00:00:00.000 : en:Opening Credits
00:01:23.166 : en:Once Upon a Time...
00:04:20.718 : en:"A Dream Is A Wish Your Heart Makes"
00:07:37.415 : en:A New Mouse In The House
00:10:15.239 : en:Lucifer
00:13:29.141 : en:Sneaking Past Lucifer
00:17:39.308 : en:Cat and Mouse
00:22:07.826 : en:Lady Tremaine
00:23:32.953 : en:Plans Afoot at the Palace
00:26:05.730 : en:"Sing Sweet Nightingale"
00:27:55.173 : en:A Royal Invitation
00:31:00.149 : en:A New Dress for Cinderella ("The Work Song")
00:33:32.510 : en:A Mission for Jaq and Gus
00:36:49.040 : en:Finishing the Dress
00:38:55.708 : en:Time to Leave for the Ball
00:42:02.102 : en:Cinderella's Fairy Godmother
00:44:11.982 : en:"Bibbidi-Bobbidi-Boo"
00:48:23.108 : en:The Ball at the Palace
00:52:54.171 : en:"So This Is Love"
00:56:57.122 : en:Breaking the Bad News to the King
01:00:42.472 : en:Lady Tremaine's Plan
01:04:11.097 : en:The Duke Arrives
01:07:34.800 : en:Rescuing Cinderella
01:13:05.714 : en:Cinderella Tries On the Glass Slipper

Source Information



Unique ID : 243151750431322100710064647301088512757 (0xB6ED52DF38A1ED29A073A0BA88E98AF5)
Complete name : Cinderella 1950 1080p Blu-ray Remux AVC DTS-HD MA 7.1 - KRaLiMaRKo.mkv
Format : Matroska
Format version : Version 2
File size : 19.6 GiB
Duration : 1 h 14 min
Overall bit rate mode : Variable
Overall bit rate : 37.6 Mb/s
Movie name : Cinderella 1950 1080p Blu-ray Remux AVC DTS-HD MA 7.1 - KRaLiMaRKo
Encoded date : UTC 2012-08-25 07:20:36
Writing application : mkvmerge v5.5.0 ('Healer') built on Apr 6 2012 21:43:24
Writing library : libebml v1.2.3 + libmatroska v1.3.0

Video
ID : 1
Format : AVC
Format/Info : Advanced Video Codec
Format profile : [email protected]
Format settings : CABAC / 4 Ref Frames
Format settings, CABAC : Yes
Format settings, Reference frames : 4 frames
Codec ID : V_MPEG4/ISO/AVC
Duration : 1 h 14 min
Bit rate mode : Variable
Maximum bit rate : 36.0 Mb/s
Width : 1 920 pixels
Height : 1 080 pixels
Display aspect ratio : 16:9
Frame rate mode : Constant
Frame rate : 23.976 (24000/1001) FPS
Color space : YUV
Chroma subsampling : 4:2:0
Bit depth : 8 bits
Scan type : Progressive
Language : English
Default : Yes
Forced : No

Audio
ID : 2
Format : DTS XLL
Format/Info : Digital Theater Systems
Commercial name : DTS-HD Master Audio
Codec ID : A_DTS
Duration : 1 h 14 min
Bit rate mode : Variable
Channel(s) : 6 channels
Channel(s)_Original : 8 channels
ChannelLayout_Original : C L R LFE Lsr Rsr Lss Rss
Sampling rate : 48.0 kHz
Frame rate : 93.750 FPS (512 SPF)
Bit depth : 24 bits
Compression mode : Lossless
Language : English
Default : Yes
Forced : No

Text #1
ID : 3
Format : PGS
Codec ID : S_HDMV/PGS
Codec ID/Info : Picture based subtitle format used on BDs/HD-DVDs
Language : English
Default : Yes
Forced : No

Text #2
ID : 4
Format : PGS
Codec ID : S_HDMV/PGS
Codec ID/Info : Picture based subtitle format used on BDs/HD-DVDs
Title : SDH
Language : English
Default : No
Forced : No

Text #3
ID : 5
Format : PGS
Codec ID : S_HDMV/PGS
Codec ID/Info : Picture based subtitle format used on BDs/HD-DVDs
Language : Italian
Default : No
Forced : No

Menu
00:00:00.000 : en:Opening Credits
00:01:23.166 : en:Once Upon a Time...
00:04:20.718 : en:"A Dream Is A Wish Your Heart Makes"
00:07:37.415 : en:A New Mouse In The House
00:10:15.239 : en:Lucifer
00:13:29.141 : en:Sneaking Past Lucifer
00:17:39.308 : en:Cat and Mouse
00:22:07.826 : en:Lady Tremaine
00:23:32.953 : en:Plans Afoot at the Palace
00:26:05.730 : en:"Sing Sweet Nightingale"
00:27:55.173 : en:A Royal Invitation
00:31:00.149 : en:A New Dress for Cinderella ("The Work Song")
00:33:32.510 : en:A Mission for Jaq and Gus
00:36:49.040 : en:Finishing the Dress
00:38:55.708 : en:Time to Leave for the Ball
00:42:02.102 : en:Cinderella's Fairy Godmother
00:44:11.982 : en:"Bibbidi-Bobbidi-Boo"
00:48:23.108 : en:The Ball at the Palace
00:52:54.171 : en:"So This Is Love"
00:56:57.122 : en:Breaking the Bad News to the King
01:00:42.472 : en:Lady Tremaine's Plan
01:04:11.097 : en:The Duke Arrives
01:07:34.800 : en:Rescuing Cinderella
01:13:05.714 : en:Cinderella Tries On the Glass Slipper

.........................................................................................................................................


Files:

Cinderella (1950) (1080p BDRip x265 10bit EAC3 5.1 - Goki)
  • Cinderella (1950) (1080p BDRip x265 10bit EAC3 5.1 - Goki).mkv (2.0 GB)
  • Cinderella (1950) (1080p BDRip x265 10bit EAC3 5.1 - Goki).nfo (9.3 KB)
  • Cinderella (1950) (1080p BDRip x265 10bit EAC3 5.1 - Goki)-banner.jpg (175.0 KB)
  • Cinderella (1950) (1080p BDRip x265 10bit EAC3 5.1 - Goki)-clearart.png (718.9 KB)
  • Cinderella (1950) (1080p BDRip x265 10bit EAC3 5.1 - Goki)-clearlogo.png (101.1 KB)
  • Cinderella (1950) (1080p BDRip x265 10bit EAC3 5.1 - Goki)-disc.png (1,015.0 KB)
  • Cinderella (1950) (1080p BDRip x265 10bit EAC3 5.1 - Goki)-fanart.jpg (243.9 KB)
  • Cinderella (1950) (1080p BDRip x265 10bit EAC3 5.1 - Goki)-keyart.jpg (1.1 MB)
  • Cinderella (1950) (1080p BDRip x265 10bit EAC3 5.1 - Goki)-logo.png (101.1 KB)
  • Cinderella (1950) (1080p BDRip x265 10bit EAC3 5.1 - Goki)-poster.jpg (370.0 KB)
  • Cinderella (1950) (1080p BDRip x265 10bit EAC3 5.1 - Goki)-thumb.jpg (287.0 KB)

Comments

Code:

  • udp://tracker.coppersurfer.tk:6969/announce
  • udp://tracker.opentrackr.org:1337/announce
  • udp://tracker.torrent.eu.org:451/announce
  • udp://tracker.internetwarriors.net:1337/announce
  • http://tracker.opentrackr.org:1337/announce
  • udp://denis.stalker.upeer.me:6969/announce
  • udp://tracker.coppersurfer.tk:6969
  • udp://tracker.internetwarriors.net:1337
  • udp://9.rarbg.me:2720/announce
  • udp://explodie.org:6969/announce
  • http://tracker3.itzmx.com:6961/announce
  • udp://tracker.cyberia.is:6969/announce
  • udp://thetracker.org/announce
  • udp://open.demonii.si:1337/announce