Terminator - Dark Fate (2019) (1080p AMZN Webrip x265 10bit EAC3 ...

  • Category Movies
  • Type HEVC/x265
  • Language English
  • Total size 4.7 GB
  • Uploaded By Goki
  • Downloads 1114
  • Last checked 2 days ago
  • Date uploaded 1 week ago
  • Seeders 41
  • Leechers 10

Terminator: Dark Fate

ActionScience Fiction

Decades after Sarah Connor prevented Judgment Day, a lethal new Terminator is sent to eliminate the future leader of the resistance. In a fight to save mankind, battle-hardened Sarah Connor teams up with an unexpected ally and an enhanced super soldier to stop the deadliest Terminator yet.

Infohash : EA746A7DF0F0331325398DC27C42257D4755F54C




Terminator: Dark Fate (2019) IMDB












Media Information



Unique ID : 15622801955875722551207614447785056126 (0xBC0D79B1687EB44AA11AE91ACF3977E)
Complete name : Terminator - Dark Fate (2019) (1080p AMZN Webrip x265 10bit EAC3 5.1 - Goki).mkv
Format : Matroska
Format version : Version 4
File size : 4.67 GiB
Duration : 2 h 8 min
Overall bit rate : 5 218 kb/s
Movie name : Terminator - Dark Fate (2019) (1080p AMZN Webrip x265 10bit EAC3 5.1 - Goki).mkv
Encoded date : UTC 2020-01-14 21:51:49
Writing application : mkvmerge v28.2.0 ('The Awakening') 64-bit
Writing library : libebml v1.3.6 + libmatroska v1.4.9

Video
ID : 1
Format : HEVC
Format/Info : High Efficiency Video Coding
Format profile : Main [email protected]@Main
Codec ID : V_MPEGH/ISO/HEVC
Duration : 2 h 8 min
Bit rate : 4 576 kb/s
Width : 1 920 pixels
Height : 800 pixels
Display aspect ratio : 2.40:1
Frame rate mode : Constant
Frame rate : 23.976 (24000/1001) FPS
Color space : YUV
Chroma subsampling : 4:2:0
Bit depth : 10 bits
Bits/(Pixel*Frame) : 0.124
Stream size : 4.09 GiB (88%)
Writing library : x265 2.9+8-27d8424c799d:[Windows][MSVC 1915][64 bit] 10bit
Encoding settings : cpuid=1111039 / frame-threads=2 / numa-pools=6 / wpp / no-pmode / no-pme / no-psnr / no-ssim / log-level=2 / input-csp=1 / input-res=1920x800 / interlace=0 / total-frames=0 / level-idc=0 / high-tier=1 / uhd-bd=0 / ref=4 / no-allow-non-conformance / no-repeat-headers / annexb / no-aud / no-hrd / info / hash=0 / no-temporal-layers / open-gop / min-keyint=23 / keyint=250 / gop-lookahead=0 / bframes=8 / b-adapt=2 / b-pyramid / bframe-bias=0 / rc-lookahead=100 / lookahead-slices=4 / scenecut=40 / radl=0 / no-intra-refresh / ctu=64 / min-cu-size=8 / no-rect / no-amp / max-tu-size=32 / tu-inter-depth=1 / tu-intra-depth=1 / limit-tu=0 / rdoq-level=2 / dynamic-rd=0.00 / no-ssim-rd / signhide / no-tskip / nr-intra=0 / nr-inter=0 / no-constrained-intra / no-strong-intra-smoothing / max-merge=3 / limit-refs=3 / limit-modes / me=3 / subme=5 / merange=57 / temporal-mvp / weightp / no-weightb / no-analyze-src-pics / deblock=0:0 / sao / no-sao-non-deblock / rd=4 / no-early-skip / rskip / no-fast-intra / no-tskip-fast / no-cu-lossless / no-b-intra / no-splitrd-skip / rdpenalty=0 / psy-rd=1.30 / psy-rdoq=2.00 / no-rd-refine / no-lossless / cbqpoffs=0 / crqpoffs=0 / rc=crf / crf=20.0 / qcomp=0.60 / qpstep=4 / stats-write=0 / stats-read=0 / ipratio=1.40 / pbratio=1.30 / aq-mode=2 / aq-strength=1.10 / cutree / zone-count=0 / no-strict-cbr / qg-size=32 / no-rc-grain / qpmax=69 / qpmin=0 / no-const-vbv / sar=1 / overscan=0 / videoformat=5 / range=0 / colorprim=2 / transfer=2 / colormatrix=2 / chromaloc=0 / display-window=0 / max-cll=0,0 / min-luma=0 / max-luma=1023 / log2-max-poc-lsb=8 / vui-timing-info / vui-hrd-info / slices=1 / no-opt-qp-pps / no-opt-ref-list-length-pps / no-multi-pass-opt-rps / scenecut-bias=0.05 / no-opt-cu-delta-qp / no-aq-motion / no-hdr / no-hdr-opt / no-dhdr10-opt / no-idr-recovery-sei / analysis-reuse-level=5 / scale-factor=0 / refine-intra=0 / refine-inter=0 / refine-mv=0 / no-limit-sao / ctu-info=0 / no-lowpass-dct / refine-mv-type=0 / copy-pic=1 / max-ausize-factor=1.0 / no-dynamic-refine / no-single-sei
Default : Yes
Forced : No

Audio
ID : 2
Format : E-AC-3
Format/Info : Enhanced AC-3
Commercial name : Dolby Digital Plus
Codec ID : A_EAC3
Duration : 2 h 8 min
Bit rate mode : Constant
Bit rate : 640 kb/s
Channel(s) : 6 channels
Channel layout : L R C LFE Ls Rs
Sampling rate : 48.0 kHz
Frame rate : 31.250 FPS (1536 SPF)
Compression mode : Lossy
Stream size : 586 MiB (12%)
Language : English
Service kind : Complete Main
Default : Yes
Forced : No

Text #1
ID : 3
Format : UTF-8
Codec ID : S_TEXT/UTF8
Codec ID/Info : UTF-8 Plain Text
Duration : 1 h 57 min
Bit rate : 32 b/s
Count of elements : 1121
Stream size : 27.9 KiB (0%)
Language : English
Default : No
Forced : No

Text #2
ID : 4
Format : UTF-8
Codec ID : S_TEXT/UTF8
Codec ID/Info : UTF-8 Plain Text
Duration : 1 h 57 min
Bit rate : 39 b/s
Count of elements : 1430
Stream size : 33.6 KiB (0%)
Language : English
Default : No
Forced : No

Source


1080p AMZN WEB-DL NTG
311970322789731134674950805655295214466 (0xEAB34C73CED791CD3016C2803655C382)

.........................................................................................................................................


Files:

Terminator - Dark Fate (2019) (1080p AMZN Webrip x265 10bit EAC3 5.1 - Goki)
  • Terminator - Dark Fate (2019) (1080p AMZN Webrip x265 10bit EAC3 5.1 - Goki).mkv (4.7 GB)
  • Terminator - Dark Fate (2019) (1080p AMZN Webrip x265 10bit EAC3 5.1 - Goki).nfo (11.0 KB)
  • Terminator - Dark Fate (2019) (1080p AMZN Webrip x265 10bit EAC3 5.1 - Goki)-banner.jpg (162.8 KB)
  • Terminator - Dark Fate (2019) (1080p AMZN Webrip x265 10bit EAC3 5.1 - Goki)-clearart.png (369.9 KB)
  • Terminator - Dark Fate (2019) (1080p AMZN Webrip x265 10bit EAC3 5.1 - Goki)-clearlogo.png (113.4 KB)
  • Terminator - Dark Fate (2019) (1080p AMZN Webrip x265 10bit EAC3 5.1 - Goki)-disc.png (1.2 MB)
  • Terminator - Dark Fate (2019) (1080p AMZN Webrip x265 10bit EAC3 5.1 - Goki)-fanart.jpg (435.1 KB)
  • Terminator - Dark Fate (2019) (1080p AMZN Webrip x265 10bit EAC3 5.1 - Goki)-keyart.jpg (1,023.8 KB)
  • Terminator - Dark Fate (2019) (1080p AMZN Webrip x265 10bit EAC3 5.1 - Goki)-logo.png (113.4 KB)
  • Terminator - Dark Fate (2019) (1080p AMZN Webrip x265 10bit EAC3 5.1 - Goki)-poster.jpg (242.7 KB)
  • Terminator - Dark Fate (2019) (1080p AMZN Webrip x265 10bit EAC3 5.1 - Goki)-thumb.jpg (172.7 KB)

Comments

Code:

  • udp://tracker.coppersurfer.tk:6969/announce
  • udp://tracker.opentrackr.org:1337/announce
  • udp://tracker.torrent.eu.org:451/announce
  • udp://tracker.internetwarriors.net:1337/announce
  • http://tracker.opentrackr.org:1337/announce
  • udp://denis.stalker.upeer.me:6969/announce
  • udp://tracker.coppersurfer.tk:6969
  • udp://tracker.internetwarriors.net:1337
  • udp://9.rarbg.me:2720/announce
  • udp://explodie.org:6969/announce
  • http://tracker3.itzmx.com:6961/announce
  • udp://tracker.cyberia.is:6969/announce
  • udp://thetracker.org/announce
  • udp://open.demonii.si:1337/announce