Ratsasan (2018) UNCUT 720p WEBRip Dual Audio [Hindi DD2.0 + Tamil...

  • Category Movies
  • Type Dubs/Dual Audio
  • Language Hindi
  • Total size 1.7 GB
  • Uploaded By 300movieshub
  • Downloads 23175
  • Last checked 2 weeks ago
  • Date uploaded 2 weeks ago
  • Seeders 242
  • Leechers 205

Ratsasan

ActionThrillerDrama

A serial killer is murdering school girls, and a newbie cop has to track him down before the victim count increases.

Infohash : 1DD620D8FCDB55DB38D717A214694C8CB549B491

Ratsasan (2018) UNCUT 720p WEBRip Dual Audio [Hindi DD2.0 + Tamil] x264 AC3 ESubs -HDHub4u.Surf



This Movie is Encoded by HDHub4u.Surf



This Video is TAG FREE




https://t.me/joinchat/AAAAAFXz27QZxZs_U9QKug





POSTER



INFO

General
Unique ID                                : 132289458753624391050620662450995600021 (0x638605E2EFF38346545D478304EC1A95)
Complete name                            : M:\iDM Downloads\Ratsasan (2018) UNCUT 720p WEBRip Dual Audio [Hindi DD2.0 + Tamil] x264 AC3 ESubs -HDHub4u.Surf\Ratsasan (2018) UNCUT 720p WEBRip Dual Audio [Hindi DD2.0 + Tamil] x264 AC3 ESubs -HDHub4u.Surf.mkv
Format                                   : Matroska
Format version                           : Version 4
File size                                : 1.65 GiB
Duration                                 : 2 h 31 min
Overall bit rate                         : 1 561 kb/s
Movie name                               : HDHub4u.Surf | Ratsasan (2018) UNCUT 720p WEBRip Dual Audio [Hindi DD2.0 + Tamil] x264 AC3 ESubs
Encoded date                             : UTC 2020-01-27 15:05:16
Writing application                      : mkvmerge v42.0.0 ('Overtime') 64-bit
Writing library                          : libebml v1.3.10 + libmatroska v1.5.2
Cover                                    : Yes
Attachments                              : cover.jpg

Video
ID                                       : 1
Format                                   : AVC
Format/Info                              : Advanced Video Codec
Format profile                           : [email protected]
Format settings                          : CABAC / 7 Ref Frames
Format settings, CABAC                   : Yes
Format settings, Reference frames        : 7 frames
Codec ID                                 : V_MPEG4/ISO/AVC
Duration                                 : 2 h 31 min
Bit rate                                 : 1 243 kb/s
Width                                    : 1 280 pixels
Height                                   : 546 pixels
Display aspect ratio                     : 2.35:1
Original display aspect ratio            : 2.35:1
Frame rate mode                          : Constant
Frame rate                               : 25.000 FPS
Color space                              : YUV
Chroma subsampling                       : 4:2:0
Bit depth                                : 8 bits
Scan type                                : Progressive
Bits/(Pixel*Frame)                       : 0.071
Stream size                              : 1.31 GiB (79%)
Title                                    : DownLoaded From HDHub4u.Surf
Writing library                          : x264 core 142 r2479 dd79a61
Encoding settings                        : cabac=1 / ref=7 / deblock=1:0:0 / analyse=0x3:0x113 / me=umh / subme=9 / psy=1 / psy_rd=1.00:0.00 / mixed_ref=1 / me_range=16 / chroma_me=1 / trellis=2 / 8x8dct=1 / cqm=0 / deadzone=21,11 / fast_pskip=1 / chroma_qp_offset=-2 / threads=72 / lookahead_threads=4 / sliced_threads=0 / nr=0 / decimate=1 / interlaced=0 / bluray_compat=0 / constrained_intra=0 / bframes=8 / b_pyramid=2 / b_adapt=1 / b_bias=0 / direct=1 / weightb=1 / open_gop=0 / weightp=2 / keyint=250 / keyint_min=25 / scenecut=40 / intra_refresh=0 / rc_lookahead=40 / rc=2pass / mbtree=1 / bitrate=1243 / ratetol=1.0 / qcomp=0.60 / qpmin=0 / qpmax=69 / qpstep=4 / cplxblur=20.0 / qblur=0.5 / vbv_maxrate=62500 / vbv_bufsize=78125 / nal_hrd=none / filler=0 / ip_ratio=1.40 / aq=1:1.00
Default                                  : Yes
Forced                                   : No
Color range                              : Limited
Color primaries                          : BT.709
Transfer characteristics                 : BT.709
Matrix coefficients                      : BT.709

Audio #1
ID                                       : 2
Format                                   : AAC LC SBR
Format/Info                              : Advanced Audio Codec Low Complexity with Spectral Band Replication
Commercial name                          : HE-AAC
Format settings                          : NBC
Codec ID                                 : A_AAC-5
Duration                                 : 2 h 31 min
Bit rate                                 : 96.0 kb/s
Channel(s)                               : 2 channels
Channel layout                           : L R
Sampling rate                            : 44.1 kHz
Frame rate                               : 21.533 FPS (2048 SPF)
Compression mode                         : Lossy
Delay relative to video                  : -115 ms
Stream size                              : 104 MiB (6%)
Title                                    : DownLoaded From HDHub4u.Surf
Language                                 : Tamil
Default                                  : No
Forced                                   : No

Audio #2
ID                                       : 4
Format                                   : AC-3
Format/Info                              : Audio Coding 3
Commercial name                          : Dolby Digital
Codec ID                                 : A_AC3
Duration                                 : 2 h 31 min
Bit rate mode                            : Constant
Bit rate                                 : 224 kb/s
Channel(s)                               : 2 channels
Channel layout                           : L R
Sampling rate                            : 48.0 kHz
Frame rate                               : 31.250 FPS (1536 SPF)
Compression mode                         : Lossy
Delay relative to video                  : -115 ms
Stream size                              : 243 MiB (14%)
Title                                    : DownLoaded From HDHub4u.Surf
Language                                 : Hindi
Service kind                             : Complete Main
Default                                  : Yes
Forced                                   : No

Text
ID                                       : 3
Format                                   : UTF-8
Codec ID                                 : S_TEXT/UTF8
Codec ID/Info                            : UTF-8 Plain Text
Duration                                 : 2 h 28 min
Bit rate                                 : 55 b/s
Count of elements                        : 1916
Stream size                              : 61.0 KiB (0%)
Title                                    : DownLoaded From HDHub4u.Surf
Language                                 : English
Default                                  : Yes
Forced                                   : No



SCREENSHOTS





Keep Visiting HDHub4u.Surf For More Exclusive Contents !


Files:

Ratsasan (2018) UNCUT 720p WEBRip Dual Audio [Hindi DD2.0 + Tamil] x264 AC3 ESubs -HDHub4u.Surf
  • SAmple 2 ~ Ratsasan (2018) UNCUT 720p WEBRip Dual Audio [Hindi DD2.0 + Tamil] x264 AAC ESubs (1).mkv (32.2 MB)
  • SAmple ~ Ratsasan (2018) UNCUT 720p WEBRip Dual Audio [Hindi DD2.0 + Tamil] x264 AAC ESubs (1).mkv (50.6 MB)
  • Ratsasan (2018) UNCUT 720p WEBRip Dual Audio [Hindi DD2.0 + Tamil] x264 AC3 ESubs -HDHub4u.Surf.mkv (1.7 GB)

Comments

Code:

  • udp://tracker.coppersurfer.tk:6969/announce
  • udp://tracker.leechers-paradise.org:6969/announce
  • udp://tracker.opentrackr.org:1337/announce
  • udp://tracker.internetwarriors.net:1337/announce
  • udp://p4p.arenabg.com:1337/announce
  • udp://9.rarbg.to:2710/announce
  • udp://9.rarbg.me:2710/announce
  • udp://tracker.openbittorrent.com:80/announce
  • udp://exodus.desync.com:6969/announce
  • udp://tracker.torrent.eu.org:451/announce