Young.Sheldon.S03E15.720p.HDTV.x264-AVS

  • Category TV
  • Type HD
  • Language English
  • Total size 399.2 MB
  • Uploaded By SirMadMax
  • Downloads 1670
  • Last checked 13 hours ago
  • Date uploaded 4 days ago
  • Seeders 208
  • Leechers 32

Infohash : 27B31D5135E03D4ED5DBCF9843CE57C701B3F782

Young.Sheldon.S03E15.720p.HDTV.x264-AVS

Season 03, Episode 15 – “A BOYFRIEND’S EX-WIFE AND A GOOD LUCK HEAD RUB”
Meemaw meets Dale’s ex-wife, June. Also, Sheldon is forced to work on a group project with reluctant college students.

Video
ID : 1
Format : AVC
Format/Info : Advanced Video Codec
Format profile : [email protected]
Format settings : CABAC / 5 Ref Frames
Format settings, CABAC : Yes
Format settings, Reference frames : 5 frames
Codec ID : V_MPEG4/ISO/AVC
Duration : 18 min 18 s
Bit rate : 2 603 kb/s
Width : 1 280 pixels
Height : 718 pixels
Display aspect ratio : 16:9
Frame rate mode : Constant
Frame rate : 23.976 (24000/1001) FPS
Color space : YUV
Chroma subsampling : 4:2:0
Bit depth : 8 bits
Scan type : Progressive
Bits/(Pixel*Frame) : 0.118
Stream size : 341 MiB (85%)
Writing library : x264 core 159 r2991 1771b55
Encoding settings : cabac=1 / ref=5 / deblock=1:0:0 / analyse=0x3:0x113 / me=hex / subme=8 / psy=1 / psy_rd=1.00:0.00 / mixed_ref=1 / me_range=16 / chroma_me=1 / trellis=2 / 8x8dct=1 / cqm=0 / deadzone=21,11 / fast_pskip=1 / chroma_qp_offset=-2 / threads=22 / lookahead_threads=3 / sliced_threads=0 / nr=0 / decimate=1 / interlaced=0 / bluray_compat=0 / constrained_intra=0 / bframes=3 / b_pyramid=2 / b_adapt=1 / b_bias=0 / direct=3 / weightb=1 / open_gop=0 / weightp=2 / keyint=250 / keyint_min=23 / scenecut=40 / intra_refresh=0 / rc_lookahead=50 / rc=crf / mbtree=1 / crf=18.0 / qcomp=0.60 / qpmin=0 / qpmax=69 / qpstep=4 / ip_ratio=1.40 / aq=1:1.00
Default : Yes
Forced : No
Color range : Limited
Matrix coefficients : BT.709

Audio
ID : 2
Format : AC-3
Format/Info : Audio Coding 3
Commercial name : Dolby Digital
Codec ID : A_AC3
Duration : 18 min 18 s
Bit rate mode : Constant
Bit rate : 384 kb/s
Channel(s) : 6 channels
Channel layout : L R C LFE Ls Rs
Sampling rate : 48.0 kHz
Frame rate : 31.250 FPS (1536 SPF)
Bit depth : 16 bits
Compression mode : Lossy
Stream size : 50.3 MiB (13%)
Service kind : Complete Main
Default : Yes
Forced : No

Files:

Young.Sheldon.S03E15.720p.HDTV.x264-AVS[rarbg]
  • RARBG.txt (0.0 KB)
  • RARBG_DO_NOT_MIRROR.exe (0.1 KB)
  • Young.Sheldon.S03E15.720p.HDTV.x264-AVS.mkv (399.1 MB)
  • young.sheldon.s03e15.720p.hdtv.x264-avs.nfo (4.4 KB)

Comments

Code:

  • http://tracker.trackerfix.com:80/announce
  • udp://9.rarbg.me:2760/announce
  • udp://9.rarbg.to:2790/announce