Taj Mahal 1989 S01 2020 720p NF WEBRip Hindi English AAC 5.1 ESub...

  • Category TV
  • Type HD
  • Language Hindi
  • Total size 2.1 GB
  • Uploaded By uploader6969
  • Downloads 463
  • Last checked 3 days ago
  • Date uploaded 1 week ago
  • Seeders 6
  • Leechers 10

Infohash : A60AEB44CBEB7E28A0F7761B1A3C6933DBE1D643

www.MoviePirate.Site


Telegram Link



****************************
_____ _ _ 
|_ _|___ | || | _ _ 
| | / _ \| || || | | |
| || __/| || || |_| |
|_| \___||_||_| \__, |
|___/ 
****************************
Team Telly Proudly Presents
****************************
------------------
|Media Info|
------------------
General
Unique ID                                : 172536537780668856006898296122789585052 (0x81CD541609A84432CFEABB1A0553E09C)
Complete name                            : C:\Users\MoviePirate\Downloads\File\Taj Mahal 1989 S01 2020 720p NF WEBRip Hindi English AAC 5.1 ESub x264 - MoviePirate - Telly\Taj.Mahal.1989.S01E01.720p.NF.WEBRip.Hindi.English.AAC.5.1.x264.ESub-MoviePirate-Telly.mkv
Format                                   : Matroska
Format version                           : Version 4
File size                                : 280 MiB
Duration                                 : 31 min 32 s
Overall bit rate                         : 1 243 kb/s
Movie name                               : [email protected]
Encoded date                             : UTC 2020-02-14 10:08:45
Writing application                      : mkvmerge v39.0.0 ('In The Waiting Line') 64-bit
Writing library                          : libebml v1.3.9 + libmatroska v1.5.2
Video
ID                                       : 1
Format                                   : AVC
Format/Info                              : Advanced Video Codec
Format profile                           : [email protected]
Format settings                          : CABAC / 4 Ref Frames
Format settings, CABAC                   : Yes
Format settings, Reference frames        : 4 frames
Codec ID                                 : V_MPEG4/ISO/AVC
Duration                                 : 31 min 32 s
Bit rate                                 : 1 000 kb/s
Width                                    : 1 280 pixels
Height                                   : 720 pixels
Display aspect ratio                     : 16:9
Frame rate mode                          : Constant
Frame rate                               : 25.000 FPS
Color space                              : YUV
Chroma subsampling                       : 4:2:0
Bit depth                                : 8 bits
Scan type                                : Progressive
Bits/(Pixel*Frame)                       : 0.043
Stream size                              : 222 MiB (79%)
Writing library                          : x264 core 157 r2969 d4099dd
Encoding settings                        : cabac=1 / ref=2 / deblock=1:0:0 / analyse=0x3:0x113 / me=hex / subme=6 / psy=1 / psy_rd=1.00:0.00 / mixed_ref=1 / me_range=16 / chroma_me=1 / trellis=1 / 8x8dct=1 / cqm=0 / deadzone=21,11 / fast_pskip=1 / chroma_qp_offset=-2 / threads=22 / lookahead_threads=3 / sliced_threads=0 / nr=0 / decimate=1 / interlaced=0 / bluray_compat=0 / constrained_intra=0 / bframes=3 / b_pyramid=2 / b_adapt=1 / b_bias=0 / direct=1 / weightb=1 / open_gop=0 / weightp=1 / keyint=250 / keyint_min=25 / scenecut=40 / intra_refresh=0 / rc_lookahead=30 / rc=abr / mbtree=1 / bitrate=1000 / ratetol=1.0 / qcomp=0.60 / qpmin=0 / qpmax=69 / qpstep=4 / ip_ratio=1.40 / aq=1:1.00
Default                                  : Yes
Forced                                   : No
Audio #1
ID                                       : 2
Format                                   : AAC LC SBR
Format/Info                              : Advanced Audio Codec Low Complexity with Spectral Band Replication
Commercial name                          : HE-AAC
Format settings                          : Explicit
Codec ID                                 : A_AAC-2
Duration                                 : 31 min 32 s
Bit rate                                 : 128 kb/s
Channel(s)                               : 6 channels
Channel layout                           : C L R Ls Rs LFE
Sampling rate                            : 48.0 kHz
Frame rate                               : 23.438 FPS (2048 SPF)
Compression mode                         : Lossy
Stream size                              : 28.9 MiB (10%)
Title                                    : MoviePirate.Site
Language                                 : English
Default                                  : No
Forced                                   : No
Audio #2
ID                                       : 3
Format                                   : AAC LC SBR
Format/Info                              : Advanced Audio Codec Low Complexity with Spectral Band Replication
Commercial name                          : HE-AAC
Format settings                          : Explicit
Codec ID                                 : A_AAC-2
Duration                                 : 31 min 32 s
Bit rate                                 : 128 kb/s
Channel(s)                               : 6 channels
Channel layout                           : C L R Ls Rs LFE
Sampling rate                            : 48.0 kHz
Frame rate                               : 23.438 FPS (2048 SPF)
Compression mode                         : Lossy
Stream size                              : 28.9 MiB (10%)
Title                                    : MoviePirate.Site
Language                                 : Hindi
Default                                  : No
Forced                                   : No
Text #1
ID                                       : 4
Format                                   : UTF-8
Codec ID                                 : S_TEXT/UTF8
Codec ID/Info                            : UTF-8 Plain Text
Duration                                 : 29 min 24 s
Bit rate                                 : 0 b/s
Count of elements                        : 9
Stream size                              : 184 Bytes (0%)
Language                                 : English
Default                                  : No
Forced                                   : No
Text #2
ID                                       : 5
Format                                   : UTF-8
Codec ID                                 : S_TEXT/UTF8
Codec ID/Info                            : UTF-8 Plain Text
Duration                                 : 28 min 53 s
Bit rate                                 : 69 b/s
Count of elements                        : 460
Stream size                              : 14.6 KiB (0%)
Language                                 : English
Default                                  : No
Forced                                   : No
****************************
Telly.cc
Team Telly Official Site
****************************
www.MoviePirate.Site
Enjoy Exclusives Content only on Telly.cc





Files:

Taj Mahal 1989 S01 2020 720p NF WEBRip Hindi English AAC 5.1 ESub x264 - MoviePirate - Telly
  • Taj.Mahal.1989.S01E01.720p.NF.WEBRip.Hindi.English.AAC.5.1.x264.ESub-MoviePirate-Telly.mkv (280.5 MB)
  • Taj.Mahal.1989.S01E02.720p.NF.WEBRip.Hindi.English.AAC.5.1.x264.ESub-MoviePirate-Telly.mkv (278.4 MB)
  • Taj.Mahal.1989.S01E03.720p.NF.WEBRip.Hindi.English.AAC.5.1.x264.ESub-MoviePirate-Telly.mkv (324.9 MB)
  • Taj.Mahal.1989.S01E04.720p.NF.WEBRip.Hindi.English.AAC.5.1.x264.ESub-MoviePirate-Telly.mkv (296.8 MB)
  • Taj.Mahal.1989.S01E05.720p.NF.WEBRip.Hindi.English.AAC.5.1.x264.ESub-MoviePirate-Telly.mkv (293.7 MB)
  • Taj.Mahal.1989.S01E06.720p.NF.WEBRip.Hindi.English.AAC.5.1.x264.ESub-MoviePirate-Telly.mkv (317.9 MB)
  • Taj.Mahal.1989.S01E07.720p.NF.WEBRip.Hindi.English.AAC.5.1.x264.ESub-MoviePirate-Telly.mkv (322.7 MB)

There are currently no comments. Feel free to leave one :)

Code:

  • udp://tracker.coppersurfer.tk:6969/announce
  • udp://tracker.leechers-paradise.org:6969/announce
  • udp://open.stealth.si:80/announce
  • udp://tracker.internetwarriors.net:1337/announce
  • udp://tracker.openbittorrent.com:80/announce
  • udp://explodie.org:6969/announce
  • udp://tracker.opentrackr.org:1337/announce
  • udp://tracker.tiny-vps.com:6969/announce
  • udp://open.demonii.si:1337/announce
  • udp://tracker.torrent.eu.org:451/announce
  • udp://tracker.pirateparty.gr:6969/announce
  • udp://ipv4.tracker.harry.lu:80/announce
  • udp://tracker.cyberia.is:6969/announce
  • udp://9.rarbg.to:2710/announce
  • udp://denis.stalker.upeer.me:6969/announce